<?xml version="1.0" standalone="no"?>
<!DOCTYPE svg PUBLIC "-//W3C//DTD SVG 1.1//EN" "http://www.w3.org/Graphics/SVG/1.1/DTD/svg11.dtd" >
<svg xmlns="http://www.w3.org/2000/svg" xmlns:xlink="http://www.w3.org/1999/xlink" version="1.1">
<metadata>
Created by FontForge 20170731 at Mon Apr  1 20:07:02 2002
 By Aleksey,,,
Copyright (c) 1989, 1990, 1991, 1999, 2001 Adobe Systems Incorporated.  All Rights Reserved.
</metadata>
<defs>
<font id="CopperplateGothicStd-29BC" horiz-adv-x="500" >
  <font-face 
    font-family="Copperplate Std 29 BC"
    font-weight="400"
    font-stretch="normal"
    units-per-em="1000"
    panose-1="2 14 6 4 2 2 6 2 4 4"
    ascent="728"
    descent="-272"
    x-height="440"
    cap-height="526"
    bbox="-167 -250 1000 750"
    underline-thickness="50"
    underline-position="-200"
    unicode-range="U+0020-FB02"
  />
<missing-glyph 
d="M0 0v700h500v-700h-500zM250 395l170 255h-340zM280 350l170 -255v510zM80 50h340l-170 255zM50 605v-510l170 255z" />
    <glyph glyph-name=".notdef" 
d="M0 0v700h500v-700h-500zM250 395l170 255h-340zM280 350l170 -255v510zM80 50h340l-170 255zM50 605v-510l170 255z" />
    <glyph glyph-name=".null" horiz-adv-x="0" 
 />
    <glyph glyph-name="nonmarkingreturn" horiz-adv-x="333" 
 />
    <glyph glyph-name="space" unicode=" " horiz-adv-x="250" 
 />
    <glyph glyph-name="exclam" unicode="!" horiz-adv-x="278" 
d="M164 148h-56v12q13 4 13 23q0 8 -2 34l-21 240q-4 51 -19 57v12h110v-12q-11 -4 -14 -16t-5 -41l-17 -240q-2 -26 -2 -34q0 -19 13 -23v-12zM140 92q21 0 35 -14.5t14 -34.5t-14 -34.5t-35 -14.5t-35 14.5t-14 34.5t14 34.5t35 14.5z" />
    <glyph glyph-name="quotedbl" unicode="&#x22;" horiz-adv-x="333" 
d="M272 451l-17 -204q-4 -31 -17 -31q-12 0 -16 31l-17 204q-6 81 33 81q40 0 34 -81zM128 451l-17 -204q-4 -31 -16 -31q-13 0 -17 31l-17 204q-6 81 34 81q39 0 33 -81z" />
    <glyph glyph-name="numbersign" unicode="#" 
d="M413 209v-48h-75l-22 -161h-54l22 161h-88l-23 -161h-54l23 161h-76v48h83l14 104h-73v48h80l22 161h54l-22 -161h89l21 161h55l-23 -161h68v-48h-74l-15 -104h68zM306 313h-89l-15 -104h89z" />
    <glyph glyph-name="dollar" unicode="$" 
d="M225 608h42v-81q37 -4 67 -15.5t47 -21t23 -9.5q9 0 15 3l8 -3l-51 -87l-10 6q0 29 -33 46t-66 18v-162q33 -9 58 -18.5t52.5 -26.5t42.5 -44t15 -62q0 -68 -47.5 -111t-120.5 -46v-104h-42v104q-43 0 -92 21.5t-54 21.5q-16 0 -22 -10l-10 5l44 106l10 -3
q4 -38 42.5 -58.5t81.5 -20.5v186q-37 13 -59 23t-49 28t-40 44t-13 60q0 58 50 93.5t111 35.5v82zM225 315v149q-38 -1 -64.5 -17t-26.5 -47q0 -15 6 -27.5t12.5 -19.5t22.5 -16t23 -11.5t27 -10.5zM267 231v-174q41 4 69.5 25.5t28.5 59.5q0 9 -1.5 17t-6 14.5t-8 12
t-11.5 11t-12.5 8.5t-15 7.5t-14 6.5t-15.5 6.5t-14 5.5z" />
    <glyph glyph-name="percent" unicode="%" horiz-adv-x="889" 
d="M642 286q75 0 126 -52t51 -124t-51 -124t-126 -52t-126 52t-51 124t51 124t126 52zM642 230q-50 0 -85.5 -36t-35.5 -84t35.5 -84t85.5 -36t85.5 36t35.5 84t-35.5 84t-85.5 36zM247 586q75 0 126 -52t51 -124t-51 -124t-126 -52t-126 52t-51 124t51 124t126 52zM247 530
q-50 0 -85.5 -36t-35.5 -84t35.5 -84t85.5 -36t85.5 36t35.5 84t-35.5 84t-85.5 36zM618 583h48l-397 -649h-48z" />
    <glyph glyph-name="ampersand" unicode="&#x26;" horiz-adv-x="556" 
d="M481 88v-94q-80 6 -117 81q-49 -81 -136 -81q-60 0 -106.5 44t-46.5 111q0 118 115 155q-79 33 -79 107q0 54 39.5 87.5t95.5 33.5q63 0 100 -34t37 -88q0 -37 -21.5 -67t-58.5 -39v-2q49 -21 72 -75q10 30 32.5 61t47.5 47q10 6 16 22h10v-124h-7q-8 10 -13 10
q-14 0 -35 -35.5t-21 -56.5q0 -28 20 -54.5t36 -26.5q5 0 8 18h12zM331 160q0 45 -25.5 74.5t-65.5 29.5t-65.5 -29.5t-25.5 -74.5t25.5 -74.5t65.5 -29.5t65.5 29.5t25.5 74.5zM321 406q0 26 -21 45t-54 19q-29 0 -51 -17.5t-22 -46.5q0 -31 22 -50.5t51 -19.5q33 0 54 21
t21 49z" />
    <glyph glyph-name="quotesingle" unicode="'" horiz-adv-x="222" 
d="M144 451l-17 -204q-4 -31 -17 -31q-12 0 -16 31l-17 204q-6 81 33 81q40 0 34 -81z" />
    <glyph glyph-name="parenleft" unicode="(" horiz-adv-x="389" 
d="M310 532v-12q-85 -58 -115.5 -125t-30.5 -174t30.5 -174t115.5 -125v-12q-100 44 -158 125.5t-58 185.5t58 185.5t158 125.5z" />
    <glyph glyph-name="parenright" unicode=")" horiz-adv-x="389" 
d="M79 520v12q100 -44 158 -125.5t58 -185.5t-58 -185.5t-158 -125.5v12q85 58 115.5 125t30.5 174t-30.5 174t-115.5 125z" />
    <glyph glyph-name="asterisk" unicode="*" 
d="M262 383l4 -2l128 70l23 -77l-144 -14l-2 -6l103 -98l-63 -44l-59 130h-5l-62 -130l-63 47l104 95l-1 5l-142 17l22 79l129 -75l3 3l-26 143h78z" />
    <glyph glyph-name="plus" unicode="+" horiz-adv-x="600" 
d="M269 251v189h62v-189h189v-62h-189v-189h-62v189h-189v62h189z" />
    <glyph glyph-name="comma" unicode="," horiz-adv-x="250" 
d="M63 -130v28q76 29 76 103q-4 -2 -7 -2q-3 -1 -8 -1q-22 0 -38 10t-16 31q0 22 13.5 37.5t34.5 15.5q32 0 50.5 -18.5t18.5 -51.5q0 -53 -36.5 -99t-87.5 -53z" />
    <glyph glyph-name="hyphen" unicode="-" horiz-adv-x="333" 
d="M283 250v-30v-30h-234v60h234z" />
    <glyph glyph-name="period" unicode="." horiz-adv-x="250" 
d="M125 92q21 0 35 -14.5t14 -34.5t-14 -34.5t-35 -14.5t-35 14.5t-14 34.5t14 34.5t35 14.5z" />
    <glyph glyph-name="slash" unicode="/" horiz-adv-x="278" 
d="M-24 -6l261 538h65l-261 -538h-65z" />
    <glyph glyph-name="zero" unicode="0" 
d="M463 263q0 -119 -57 -194t-156 -75t-156 75t-57 194t57 194t156 75t156 -75t57 -194zM111 263q0 -97 37 -152t102 -55t102 55t37 152t-37 152t-102 55t-102 -55t-37 -152z" />
    <glyph glyph-name="one" unicode="1" 
d="M209 526h113v-12q-11 -2 -16 -9t-5 -27v-430q0 -20 5 -27t16 -9v-12h-115v12q11 2 15.5 9t4.5 27v356q-6 -4 -21.5 -8.5t-25.5 -11t-12 -18.5h-12v96h11q3 -13 23 -13q13 0 27 11t14 29q0 13 -4.5 17.5t-17.5 7.5v12z" />
    <glyph glyph-name="two" unicode="2" 
d="M132 349l-83 82l8 7q2 0 6 -1t6 -1q10 0 34 30q54 66 142 66q69 0 114 -39t45 -104q0 -40 -23.5 -76t-58.5 -65t-72 -56t-69 -61t-44 -69h247q13 0 20.5 5.5t10.5 23.5h12v-107h-12q-5 16 -31 16h-283q-26 0 -31 -16h-12v24q0 53 28.5 101t69 84t81 68t69 64.5t28.5 62.5
q0 37 -26 59.5t-64 22.5q-46 0 -77 -28t-31 -64q0 -13 3 -25z" />
    <glyph glyph-name="three" unicode="3" 
d="M123 372l-73 71l5 7q3 -2 8 -2q8 0 11 3q38 33 52 44t45 24t67 13q70 0 121 -38t51 -104q0 -33 -21 -62.5t-54 -47.5q42 -14 66 -47t24 -78q0 -70 -53.5 -115.5t-142.5 -45.5q-45 0 -80.5 16t-55.5 32t-26 16q-12 0 -20 -11l-10 6l50 102l11 -4q0 -3 0.5 -7.5t0.5 -6.5
q0 -25 42 -53t90 -28q57 0 90.5 27.5t33.5 67.5q0 47 -32 73t-79 26q-22 0 -32 -0.5t-20 -4.5t-13 -13h-12v97h12q7 -17 55 -17q43 0 74.5 19t31.5 59q0 32 -27.5 56t-75.5 24q-44 0 -77.5 -22.5t-33.5 -51.5q0 -4 3 -19l1 -1z" />
    <glyph glyph-name="four" unicode="4" 
d="M241 526h141v-12q-14 -4 -14 -36v-312h25q19 0 27 4t8 19h12v-108h-12q-1 15 -8 19t-27 4h-25v-56q0 -20 5 -27t16 -9v-12h-112v12q17 3 17 36v56h-210q-29 0 -31 -23h-12v78l190 304q23 37 23 40q0 9 -13 11v12zM292 452l-176 -286h178v286h-2z" />
    <glyph glyph-name="five" unicode="5" 
d="M170 219l-121 84l5 8q8 -2 11 -2q10 0 10 23v146q0 21 -5 27.5t-17 8.5v12h307q36 0 42 16h12v-106h-12q-3 17 -15.5 22.5t-35.5 5.5h-206v-165h2q41 53 117 53q81 0 129.5 -49.5t48.5 -128.5q0 -78 -50.5 -129t-127.5 -51q-78 0 -122 28q-11 7 -24.5 16.5t-20.5 13.5
t-12 4q-3 0 -6 -1t-6 -3t-5 -3l-9 7l58 97l15 -7q0 -1 -1.5 -4.5t-1.5 -6.5q0 -28 40 -53.5t92 -25.5q51 0 81 35t30 85q0 51 -33 82.5t-83 31.5q-36 0 -58.5 -15.5t-22.5 -34.5q0 -2 0.5 -6.5t0.5 -7.5z" />
    <glyph glyph-name="six" unicode="6" 
d="M433 484l-65 -91l-14 7q2 5 2 15q0 23 -24.5 40t-62.5 17q-48 0 -81 -34.5t-45 -78t-12 -90.5q36 36 64.5 50.5t74.5 14.5q73 0 119 -45t46 -119q0 -79 -49.5 -127.5t-130.5 -48.5q-90 0 -142 63.5t-52 188.5q0 130 60.5 208t146.5 78q54 0 98 -23t45 -23q4 0 12 5z
M143 166q0 -50 31 -81t80 -31t80 31t31 81q0 51 -30.5 82.5t-80.5 31.5q-49 0 -80 -32t-31 -82z" />
    <glyph glyph-name="seven" unicode="7" 
d="M430 542v-76l-184 -404q-13 -28 -13 -33q0 -13 12 -17v-12h-112v12q5 1 9.5 3t9 6.5t7 8t6.5 11t5 10t5 11.5l4 9l176 393h-260q-19 0 -20 -25h-12v103h12q2 -16 20 -16h299q18 0 24 16h12z" />
    <glyph glyph-name="eight" unicode="8" 
d="M50 149q0 92 100 135q-32 13 -56 42.5t-24 62.5q0 70 48.5 106.5t131.5 36.5t131.5 -36.5t48.5 -106.5q0 -33 -24 -62.5t-56 -42.5q100 -43 100 -135q0 -78 -58.5 -116.5t-141.5 -38.5t-141.5 38.5t-58.5 116.5zM250 56q59 0 94.5 25t35.5 73t-35.5 73t-94.5 25
t-94.5 -25t-35.5 -73t35.5 -73t94.5 -25zM250 314q48 0 79 20t31 58t-31 58t-79 20t-79 -20t-31 -58t31 -58t79 -20z" />
    <glyph glyph-name="nine" unicode="9" 
d="M75 39l63 89l14 -5q-2 -5 -2 -15q0 -23 23.5 -40t61.5 -17q48 0 81 34.5t45 78t12 90.5q-35 -36 -63.5 -49.5t-75.5 -13.5q-74 0 -120.5 44.5t-46.5 117.5q0 79 50 127.5t132 48.5q90 0 142 -63.5t52 -188.5q0 -130 -60.5 -208t-146.5 -78q-54 0 -98 23t-45 23
q-4 0 -12 -5zM362 357q0 50 -31 81t-80 31q-50 0 -82 -31.5t-32 -80.5t32 -80.5t82 -31.5q49 0 80 31t31 81z" />
    <glyph glyph-name="colon" unicode=":" horiz-adv-x="250" 
d="M125 92q21 0 35 -14.5t14 -34.5t-14 -34.5t-35 -14.5t-35 14.5t-14 34.5t14 34.5t35 14.5zM125 344q21 0 35 -14.5t14 -34.5t-14 -34.5t-35 -14.5t-35 14.5t-14 34.5t14 34.5t35 14.5z" />
    <glyph glyph-name="semicolon" unicode=";" horiz-adv-x="250" 
d="M63 -130v28q76 29 76 103q-4 -2 -7 -2q-3 -1 -8 -1q-22 0 -38 10t-16 31q0 22 13.5 37.5t34.5 15.5q32 0 50.5 -18.5t18.5 -51.5q0 -53 -36.5 -99t-87.5 -53zM125 344q21 0 35 -14.5t14 -34.5t-14 -34.5t-35 -14.5t-35 14.5t-14 34.5t14 34.5t35 14.5z" />
    <glyph glyph-name="less" unicode="&#x3c;" horiz-adv-x="600" 
d="M521 66v-74l-442 199v58l442 199v-74l-355 -154z" />
    <glyph glyph-name="equal" unicode="=" horiz-adv-x="600" 
d="M520 336v-62h-440v62h440zM520 166v-62h-440v62h440z" />
    <glyph glyph-name="greater" unicode="&#x3e;" horiz-adv-x="600" 
d="M79 -8v74l355 154l-355 154v74l442 -199v-58z" />
    <glyph glyph-name="question" unicode="?" horiz-adv-x="444" 
d="M127 406l-69 69l7 7q6 -2 8 -2q8 0 27 13t49.5 26t65.5 13q53 0 92.5 -34t39.5 -86q0 -36 -16 -68.5t-35.5 -52.5t-35.5 -45.5t-16 -49.5q0 -28 20 -30v-10h-95v12q12 1 15.5 11.5t3.5 36.5q0 33 44.5 91.5t44.5 93.5q0 69 -74 69q-29 0 -50 -11t-21 -33q0 -11 2 -17z
M216 92q21 0 35 -14.5t14 -34.5t-14 -34.5t-35 -14.5t-35 14.5t-14 34.5t14 34.5t35 14.5z" />
    <glyph glyph-name="at" unicode="@" horiz-adv-x="600" 
d="M380 311q0 51 -30 51t-61.5 -41t-31.5 -97q0 -31 10.5 -48t26.5 -17q29 0 54 39.5t32 112.5zM397 366l7 26h57l-46 -190q-3 -7 -3 -21q0 -32 26 -32q32 0 57 50t25 103q0 71 -57 127.5t-149 56.5q-81 0 -141.5 -61.5t-60.5 -181.5q0 -83 62.5 -143t147.5 -60q78 0 154 38
l8 -37q-90 -47 -162 -47t-130.5 25t-92.5 64.5t-51.5 83t-17.5 84.5q0 123 83 202t201 79q109 0 182.5 -65.5t73.5 -164.5q0 -67 -39.5 -126t-104.5 -59q-34 0 -53 21t-18 34h-1h-2q-4 -13 -31 -33t-57 -22q-27 0 -51 22t-24 74q0 35 15.5 77.5t52.5 78t86 35.5
q11 0 18.5 -2t13.5 -7t8.5 -7.5t7.5 -11.5t6 -10z" />
    <glyph glyph-name="A" unicode="A" 
d="M123 0h-96v8q10 8 12 14l139 431q11 33 11 42q0 17 -15 19v12h139v-12q-12 -3 -12 -19q0 -9 11 -42l143 -417q7 -20 18 -24v-12h-105v12q14 5 14 17q0 9 -19 62.5t-21 61.5h-197q-3 -12 -13 -40.5t-17 -50.5t-7 -27q0 -22 15 -26v-9zM239 459l-74 -246h155l-79 246h-2z
" />
    <glyph glyph-name="B" unicode="B" horiz-adv-x="556" 
d="M98 48v430q0 20 -5 27t-16 9v12h182q199 0 199 -139q0 -83 -86 -119v-2q45 -12 71 -43.5t26 -74.5q0 -73 -51 -110.5t-139 -37.5h-200v12q19 3 19 36zM172 238v-176h87q76 0 106 22.5t30 73.5q0 80 -140 80h-83zM172 464v-164h91q61 0 91 19.5t30 65.5q0 79 -103 79h-109
z" />
    <glyph glyph-name="C" unicode="C" 
d="M455 469l-61 -87l-10 5q2 12 2 16q0 21 -36 44t-85 23q-71 0 -112 -56.5t-41 -150.5q0 -95 42 -151t117 -56q44 0 83.5 26t39.5 46q0 14 -7 25l15 6l68 -94l-11 -7q-8 8 -18 8q-2 0 -24 -18t-61 -36t-83 -18q-111 0 -173 75.5t-62 193.5q0 117 61.5 193t165.5 76
q45 0 85.5 -16t62.5 -31.5t23 -15.5q5 0 11 4z" />
    <glyph glyph-name="D" unicode="D" horiz-adv-x="556" 
d="M163 464v-402h61q102 0 151.5 43t49.5 160q0 116 -44 157.5t-142 41.5h-76zM89 48v430q0 33 -19 36v12h180q124 -1 186.5 -67.5t62.5 -189.5q0 -147 -69.5 -208t-218.5 -61h-141v12q19 3 19 36z" />
    <glyph glyph-name="E" unicode="E" 
d="M85 48v430q0 20 -5 27t-16 9v12h335q25 0 28 18h12v-105h-12q-3 25 -36 25h-232v-162h167q33 0 36 23h12v-111h-12q-1 15 -11 21q-7 5 -25 5h-167v-178h239q33 0 36 23h12v-103h-12q-3 18 -36 18h-334v12q11 2 16 9t5 27z" />
    <glyph glyph-name="F" unicode="F" horiz-adv-x="444" 
d="M85 48v430q0 20 -5 27t-16 9v12h314q25 0 28 18h12v-105h-12q-2 25 -36 25h-211v-170h137q33 0 36 23h12v-111h-12q-2 26 -36 26h-137v-184q0 -20 5 -27t16 -9v-12h-116v12q11 2 16 9t5 27z" />
    <glyph glyph-name="G" unicode="G" horiz-adv-x="556" 
d="M398 94v102h-100q-10 0 -15 -4.5t-6 -16.5h-12v99h12q3 -22 21 -22h196v-12q-22 -5 -22 -34v-80q0 -32 9 -37v-7q-20 -24 -38 -39.5t-61 -32t-97 -16.5q-107 0 -171 76t-64 193t64 193t171 76q42 0 78.5 -14t58 -28t26.5 -14q7 0 14 5l8 -4l-58 -95l-10 6q6 8 6 19
q0 9 -15 23.5t-46 27t-66 12.5q-73 0 -115 -58t-42 -149q0 -95 42.5 -151t120.5 -56q75 0 111 38z" />
    <glyph glyph-name="H" unicode="H" horiz-adv-x="556" 
d="M393 233h-230v-185q0 -21 5 -27.5t18 -8.5v-12h-116v12q19 3 19 36v430q0 33 -19 36v12h116v-12q-13 -2 -18 -8.5t-5 -27.5v-183h230v183q0 21 -5 27.5t-18 8.5v12h116v-12q-19 -3 -19 -36v-430q0 -33 19 -36v-12h-116v12q13 2 18 8.5t5 27.5v185z" />
    <glyph glyph-name="I" unicode="I" horiz-adv-x="278" 
d="M207 0h-136v12q19 2 25 8.5t6 27.5v430q0 21 -6 27.5t-25 8.5v12h136v-12q-19 -2 -25 -8.5t-6 -27.5v-430q0 -21 6 -27.5t25 -8.5v-12z" />
    <glyph glyph-name="J" unicode="J" horiz-adv-x="389" 
d="M206 526h102v-12q-11 -1 -11 -21v-358q0 -67 -37.5 -104t-102.5 -37q-54 0 -94 20q-8 4 -16.5 9.5t-13.5 8t-9 2.5t-10 -4l-9 2l38 97l8 -4q4 -30 35 -49.5t62 -19.5q35 0 55 18t20 53v351q0 33 -17 36v12z" />
    <glyph glyph-name="K" unicode="K" 
d="M70 526h107v-12q-8 -2 -11 -8.5t-3 -27.5v-193l179 198q11 13 11 19q0 10 -14 12v12h125v-12q-12 -4 -26 -20l-159 -175l183 -290q9 -15 32 -17v-12h-129v9q15 4 15 17q0 8 -20 39l-129 204l-68 -74v-147q0 -20 4.5 -27t15.5 -9v-12h-113v12q19 3 19 36v430q0 33 -19 36
v12z" />
    <glyph glyph-name="L" unicode="L" horiz-adv-x="444" 
d="M85 48v430q0 20 -5 27t-16 9v12h116v-12q-11 -2 -16 -9t-5 -27v-416h223q33 0 36 21h12v-101h-12q-3 18 -36 18h-318v12q11 2 16 9t5 27z" />
    <glyph glyph-name="M" unicode="M" horiz-adv-x="667" 
d="M430 526h153v-12q-12 -2 -16.5 -8.5t-4.5 -27.5v-430q0 -21 5 -27.5t20 -8.5v-12h-118v12q15 2 19 8t4 28v362h-2l-149 -405h-13l-155 405h-2v-362q0 -21 5 -27.5t18 -8.5v-12h-111v12q18 3 18 36v430q0 20 -5 27t-16 9v12h147v-12q-21 -4 -21 -19q0 -9 13 -42l114 -287
h2l105 297q11 31 11 35q0 12 -21 16v12z" />
    <glyph glyph-name="N" unicode="N" horiz-adv-x="556" 
d="M177 0h-107v12q18 3 18 36v430q0 20 -4.5 27t-15.5 9v12h152v-12q-21 0 -21 -13q0 -5 3.5 -12.5t12.5 -22t13 -20.5l170 -292h4v324q0 21 -5 27.5t-19 8.5v12h113v-12q-14 0 -18.5 -3.5t-4.5 -15.5v-447q0 -21 6 -27.5t22 -8.5v-12h-128v12q26 5 26 13q0 5 -4.5 13
t-13.5 22t-12 19l-208 357h-2v-388q0 -21 5 -27.5t18 -8.5v-12z" />
    <glyph glyph-name="O" unicode="O" horiz-adv-x="556" 
d="M278 470q-75 0 -117 -56t-42 -151t42 -151t117 -56t117 56t42 151t-42 151t-117 56zM511 263q0 -117 -63.5 -193t-169.5 -76t-169.5 76t-63.5 193t63.5 193t169.5 76t169.5 -76t63.5 -193z" />
    <glyph glyph-name="P" unicode="P" 
d="M159 464v-177h107q109 0 109 89q0 43 -25.5 65.5t-71.5 22.5h-119zM85 48v430q0 20 -5 27t-16 9v12h216q85 0 127 -41.5t42 -98.5q0 -86 -48.5 -123.5t-152.5 -37.5h-89v-177q0 -21 5 -27.5t18 -8.5v-12h-116v12q19 3 19 36z" />
    <glyph glyph-name="Q" unicode="Q" horiz-adv-x="556" 
d="M312 60l-28 37q-6 8 -17 16t-17.5 13.5t-6.5 11.5q0 9 17 9q28 0 108 -61q69 50 69 177q0 95 -42 151t-117 56t-117 -56t-42 -151t42 -151t117 -56q19 0 34 4zM463 -2l-60 -64l-7 8q4 5 4 10q0 2 -4 7t-17.5 19.5t-25.5 27.5q-35 -12 -75 -12q-106 0 -169.5 76t-63.5 193
t63.5 193t169.5 76t169.5 -76t63.5 -193q0 -73 -26.5 -132.5t-74.5 -94.5q18 -23 25 -29.5t13 -6.5t10 3z" />
    <glyph glyph-name="R" unicode="R" horiz-adv-x="556" 
d="M98 48v430q0 21 -6 27.5t-25 8.5v12h220q91 0 139.5 -43t48.5 -115q0 -53 -31.5 -91.5t-80.5 -43.5l95 -174q2 -4 6.5 -12.5t7 -12t6.5 -9.5t9 -9t11 -4v-12h-118v12q17 3 17 12q0 7 -17 35l-90 167h-118v-178q0 -21 5.5 -27.5t21.5 -8.5v-12h-130v12q17 2 23 8.5t6 27.5
zM172 464v-182h127q50 0 76 24t26 67q0 91 -112 91h-117z" />
    <glyph glyph-name="S" unicode="S" 
d="M52 32l63 113l10 -4q0 -46 38 -65.5t90 -19.5q48 0 86 23t38 67q0 36 -32 57.5t-77.5 32.5t-91.5 24.5t-78 44t-32 79.5q0 71 51.5 109.5t131.5 38.5q63 0 113 -20q45 -18 49 -18q5 0 12 5l9 -6l-51 -94l-10 5q0 31 -33.5 48.5t-85.5 17.5q-48 0 -84 -21t-36 -64
q0 -24 23 -40.5t57.5 -24t75 -19.5t75 -26.5t57.5 -46.5t23 -77q0 -74 -52.5 -115.5t-143.5 -41.5q-53 0 -111 22q-12 5 -24.5 10.5t-18.5 8.5t-8 3q-13 0 -21 -10z" />
    <glyph glyph-name="T" unicode="T" horiz-adv-x="444" 
d="M73 526h298q20 0 27 4t9 14h12v-99h-12q-3 19 -36 19h-112v-416q0 -21 6 -27.5t25 -8.5v-12h-136v12q19 2 25 8.5t6 27.5v416h-112q-33 0 -36 -19h-12v99h12q2 -10 9 -14t27 -4z" />
    <glyph glyph-name="U" unicode="U" horiz-adv-x="556" 
d="M372 526h114v-12q-11 -2 -16 -9t-5 -27v-338q0 -63 -50.5 -104.5t-136.5 -41.5t-136.5 41.5t-50.5 104.5v338q0 20 -5 27t-16 9v12h114v-12q-11 -2 -15 -8.5t-4 -27.5v-295q0 -65 24.5 -96t88.5 -31t88.5 31t24.5 96v295q0 21 -4 27.5t-15 8.5v12z" />
    <glyph glyph-name="V" unicode="V" horiz-adv-x="444" 
d="M11 526h112v-12q-15 -4 -15 -20q0 -5 9 -37l110 -365h2l114 386q3 12 3 20q0 15 -26 16v12h112v-10q-15 -3 -23 -29l-121 -406q-11 -39 -11 -47q0 -18 10 -22v-12h-124v12q12 4 12 13q0 6 -22 75l-120 386q-6 18 -10 23t-12 5v12z" />
    <glyph glyph-name="W" unicode="W" horiz-adv-x="667" 
d="M30 526h111v-12q-2 -1 -4.5 -2.5t-3.5 -2.5t-3 -2.5t-3 -3l-2 -3t-1.5 -3.5t-0.5 -5q0 -10 7 -36l80 -322h2l93 330q6 22 6 30t-22 20v12h121v-12q-20 -8 -20 -16q0 -3 6 -29l89 -335h2l77 314q1 7 4 18.5t5 19t2 10.5q0 11 -15 18v12h94v-15q-14 -5 -22 -38l-97 -383
q-13 -50 -13 -57q0 -11 15 -21v-12h-111v12q16 5 16 18q0 11 -9 44l-86 322h-2l-87 -315q-11 -37 -11 -48q0 -14 22 -21v-12h-123v12q16 12 16 20q0 13 -9 49l-100 400q-3 15 -7 21t-16 9v15z" />
    <glyph glyph-name="X" unicode="X" 
d="M317 526h127v-12q-13 0 -21.5 -7.5t-19.5 -26.5l-118 -205l147 -240q12 -21 26 -23v-12h-125v9q15 6 15 17q0 15 -10 31l-94 148l-86 -146q-11 -20 -11 -27q0 -16 14 -20v-12h-120v12q15 0 24 8t21 30l123 215l-134 223q-14 23 -34 26v12h137v-12q-20 -6 -20 -17
q0 -8 6 -20l85 -143l84 145q6 12 6 17q0 18 -22 18v12z" />
    <glyph glyph-name="Y" unicode="Y" horiz-adv-x="444" 
d="M256 244v-196q0 -21 6 -27.5t25 -8.5v-12h-136v12q19 2 25 8.5t6 27.5v189l-121 212q-1 2 -8 14t-10 16.5t-9 13t-12.5 13.5t-14.5 8v12h123v-10q-16 -3 -16 -14q0 -6 9 -24l100 -177l102 183q5 9 5 15q0 15 -19 15v12h115v-12q-14 -3 -26 -22z" />
    <glyph glyph-name="Z" unicode="Z" horiz-adv-x="444" 
d="M399 501l-252 -439h199q33 0 36 23h12v-103h-12q-3 18 -36 18h-303v17l257 447h-212q-33 0 -36 -23h-12v103h12q3 -18 36 -18h311v-25z" />
    <glyph glyph-name="bracketleft" unicode="[" horiz-adv-x="389" 
d="M94 526h224v-38h-154v-540h156v-38h-226v616z" />
    <glyph glyph-name="backslash" unicode="\" horiz-adv-x="278" 
d="M-66 532h70l340 -538h-70z" />
    <glyph glyph-name="bracketright" unicode="]" horiz-adv-x="389" 
d="M71 526h224v-616h-226v38h156v540h-154v38z" />
    <glyph glyph-name="asciicircum" unicode="^" horiz-adv-x="600" 
d="M165 161h-74l183 365h52l183 -365h-74l-135 271z" />
    <glyph glyph-name="underscore" unicode="_" 
d="M500 -125h-500v50h500v-50z" />
    <glyph glyph-name="grave" unicode="`" horiz-adv-x="278" 
d="M150 492l-137 140h77l111 -140h-51z" />
    <glyph glyph-name="a" unicode="a" horiz-adv-x="444" 
d="M121 0h-93v12q20 4 28 33l106 327q1 6 4 15l5 15t2 9q0 11 -12 17v12h126v-12q-8 -3 -8 -18q0 -4 10 -37l105 -334q6 -22 22 -27v-12h-92v12q11 2 11 15q0 2 -6 24l-22 69h-172l-21 -69q-6 -22 -6 -27q0 -10 13 -12v-12zM222 396l-70 -228h139l-67 228h-2z" />
    <glyph glyph-name="b" unicode="b" 
d="M94 48v344q0 21 -5 27.5t-17 8.5v12h180q82 0 123 -30.5t41 -84.5q0 -34 -22 -62.5t-55 -34.5v-2q38 -11 61.5 -37t23.5 -64q0 -63 -44 -94t-114 -31h-192v12q11 2 15.5 9t4.5 27zM156 202v-154h102q102 0 102 76q0 40 -24 59t-78 19h-102zM156 392v-146h98q104 0 104 78
q0 68 -104 68h-98z" />
    <glyph glyph-name="c" unicode="c" horiz-adv-x="444" 
d="M395 396l7 -5l-49 -76l-9 3q3 33 -26.5 56.5t-67.5 23.5q-60 0 -98 -47.5t-38 -130.5q0 -87 34.5 -132.5t97.5 -45.5q38 0 67.5 25t29.5 46q0 6 -1 10l9 3l58 -74l-7 -5q-5 4 -13 4q-9 0 -27.5 -14t-48.5 -28.5t-67 -14.5q-89 0 -141.5 56t-52.5 170q0 96 52 161t142 65
q28 0 53 -9t38.5 -19.5t25.5 -19.5t18 -9q2 0 14 7z" />
    <glyph glyph-name="d" unicode="d" 
d="M153 392v-344h71q83 2 119.5 37.5t36.5 135.5q0 90 -34 130.5t-113 40.5h-80zM91 48v344q0 21 -5 27.5t-19 8.5v12h187q93 0 140.5 -58.5t47.5 -159.5q0 -125 -56.5 -173.5t-161.5 -48.5h-155v12q12 2 17 8.5t5 27.5z" />
    <glyph glyph-name="e" unicode="e" horiz-adv-x="444" 
d="M98 48v344q0 33 -18 36v12h259q27 0 32 18h12v-90h-12q-4 24 -28 24h-183v-144h118q24 0 28 26h12v-98h-12q-4 24 -28 24h-118v-152h192q24 0 28 26h12v-92h-12q-2 10 -9.5 14t-28.5 4h-262v12q18 3 18 36z" />
    <glyph glyph-name="f" unicode="f" horiz-adv-x="389" 
d="M86 48v344q0 33 -18 36v12h267q11 0 16.5 2t7.5 5.5t4 10.5h12v-90h-12q-4 24 -28 24h-187v-144h116q24 0 28 26h12v-98h-12q-4 24 -28 24h-116v-152q0 -21 5 -27.5t17 -8.5v-12h-102v12q18 3 18 36z" />
    <glyph glyph-name="g" unicode="g" 
d="M352 78v90h-83q-23 0 -27 -25l-2 -1h-10v101h12q5 -23 27 -23h153l2 -2v-11q-9 -2 -11.5 -6t-2.5 -17v-79q0 -9 4 -15.5t4 -9.5q0 -9 -18 -28.5t-59 -38.5t-91 -19q-90 0 -142 65t-52 161t52 161t142 65q42 0 82 -18q9 -3 25.5 -12.5t25.5 -9.5t19 5l8 -5l-51 -83l-9 5
q3 11 3 22q0 17 -32.5 32.5t-66.5 15.5q-63 0 -101.5 -51.5t-38.5 -132.5q0 -72 43 -122t96 -50q63 0 99 36z" />
    <glyph glyph-name="h" unicode="h" 
d="M147 248h206v144q0 33 -18 36v12h98v-12q-18 -3 -18 -36v-344q0 -33 18 -36v-12h-98v12q18 3 18 36v152h-206v-152q0 -33 18 -36v-12h-98v12q18 3 18 36v344q0 33 -18 36v12h98v-12q-18 -3 -18 -36v-144z" />
    <glyph glyph-name="i" unicode="i" horiz-adv-x="278" 
d="M188 0h-98v12q18 3 18 36v344q0 33 -18 36v12h98v-12q-18 -3 -18 -36v-344q0 -33 18 -36v-12z" />
    <glyph glyph-name="j" unicode="j" horiz-adv-x="333" 
d="M182 114v278q0 21 -5 27.5t-17 8.5v12h102v-12q-18 -3 -18 -36v-268q0 -130 -119 -130q-38 0 -60 12q-32 16 -41 16q-11 0 -16 -4l-8 3v2l36 84h2l8 -5v-8q0 -16 22.5 -34t51.5 -18q33 0 47.5 17t14.5 55z" />
    <glyph glyph-name="k" unicode="k" horiz-adv-x="444" 
d="M85 48v344q0 33 -19 36v12h102v-12q-11 -2 -16 -9t-5 -27v-158l136 152q23 27 23 31q0 9 -14 11v12h120v-14q-18 2 -32 -14l-134 -150l138 -219q14 -22 25 -27q6 -3 16 -4v-12h-112v12q13 2 13 12q0 8 -19 35l-104 159l-56 -62v-108q0 -20 4.5 -27t15.5 -9v-12h-101v12
q19 3 19 36z" />
    <glyph glyph-name="l" unicode="l" horiz-adv-x="389" 
d="M85 48v344q0 33 -18 36v12h98v-12q-18 -3 -18 -36v-340h192q24 0 28 16h12v-86h-12q-2 11 -7.5 14.5t-20.5 3.5h-272v12q18 3 18 36z" />
    <glyph glyph-name="m" unicode="m" horiz-adv-x="611" 
d="M74 440h137v-12q-14 -9 -15 -16q0 -8 9 -31l101 -267h2l98 265q10 27 10 33q0 15 -13 16v12h132v-12q-20 -4 -20 -36v-344q0 -21 5 -27.5t17 -8.5v-12h-97v12q13 2 18 8.5t5 27.5v340h-2l-145 -388h-21l-146 388h-2v-340q0 -20 5 -27t16 -9v-12h-92v12q19 3 19 36v344
q0 32 -21 36v12z" />
    <glyph glyph-name="n" unicode="n" 
d="M163 0h-99v12q13 2 18 8.5t5 27.5v344q0 33 -18 36v12h122v-12q-16 -2 -16 -14q0 -4 10 -21l169 -275h2v274q0 33 -19 36v12h93v-12q-18 -3 -18 -36v-344q0 -20 4.5 -27t15.5 -9v-12h-97v12q14 0 14 8t-15 32l-189 306h-2v-310q0 -20 4.5 -27t15.5 -9v-12z" />
    <glyph glyph-name="o" unicode="o" 
d="M250 -6q-90 0 -142 65t-52 161t52 161t142 65t142 -65t52 -161t-52 -161t-142 -65zM250 42q68 0 102 52.5t34 125.5t-34 125.5t-102 52.5t-102 -52.5t-34 -125.5t34 -125.5t102 -52.5z" />
    <glyph glyph-name="p" unicode="p" horiz-adv-x="444" 
d="M96 48v344q0 21 -5 27.5t-19 8.5v12h189q66 0 100 -36.5t34 -89.5q0 -58 -42 -91t-108 -33h-87v-142q0 -21 5 -27.5t17 -8.5v-12h-100v12q16 4 16 36zM158 392v-154h73q54 0 80 21.5t26 56.5q0 36 -21.5 56t-60.5 20h-97z" />
    <glyph glyph-name="q" unicode="q" 
d="M419 -26l-69 -57l-7 10q7 12 7 16t-7.5 14.5t-21.5 27.5t-15 18q-24 -9 -56 -9q-90 0 -142 65t-52 161t52 161t142 65t142 -65t52 -161q0 -63 -23.5 -114.5t-66.5 -79.5q4 -5 13 -18.5t17.5 -21.5t16.5 -8q7 0 14 4zM386 220q0 73 -34 125.5t-102 52.5t-102 -52.5
t-34 -125.5t34 -125.5t102 -52.5q9 0 25 2q-11 16 -24.5 29t-21 19t-7.5 8q0 5 11 5q32 0 87 -42q66 45 66 157z" />
    <glyph glyph-name="r" unicode="r" 
d="M157 392v-150h96q104 0 104 80q0 70 -104 70h-96zM95 48v344q0 33 -18 36v12h186q70 0 111 -33.5t41 -90.5q0 -43 -26 -75t-67 -38l87 -164q14 -27 34 -27v-12h-112v12q18 2 18 12q0 6 -10 26l-75 140h-107v-142q0 -21 5 -27.5t17 -8.5v-12h-102v12q18 3 18 36z" />
    <glyph glyph-name="s" unicode="s" horiz-adv-x="444" 
d="M52 28l43 90l11 -5q0 -1 -0.5 -3t-1 -3.5l-1 -3t-0.5 -2.5q0 -19 35.5 -39t78.5 -20q41 0 73 22t32 68q0 31 -26.5 47.5t-64 24t-75.5 18t-64.5 38.5t-26.5 75q0 49 42 80t112 31q40 0 86 -12q6 -2 15.5 -5.5t15.5 -6t10 -2.5q6 0 19 9l8 -5l-43 -88l-9 4q1 2 1 11
q0 21 -37.5 34t-71.5 13q-38 0 -64 -19t-26 -45t19 -41.5t47.5 -21t62 -14.5t62 -19.5t47.5 -37.5t19 -68q0 -65 -47.5 -101.5t-114.5 -36.5q-50 0 -96 20q-10 4 -20 9.5t-15.5 8t-7.5 2.5q-7 0 -15 -11z" />
    <glyph glyph-name="t" unicode="t" horiz-adv-x="389" 
d="M225 392v-344q0 -20 4.5 -27t15.5 -9v-12h-100v12q18 3 18 36v344h-94q-24 0 -28 -24h-12v90h12q2 -10 7.5 -14t20.5 -4h250q15 0 20.5 4t7.5 14h12v-90h-12q-4 24 -28 24h-94z" />
    <glyph glyph-name="u" unicode="u" 
d="M63 440h106v-12q-11 -2 -15.5 -9t-4.5 -27v-260q0 -39 24 -64.5t77 -25.5t77 25.5t24 64.5v260q0 21 -5 27.5t-17 8.5v12h104v-12q-11 -2 -15.5 -9t-4.5 -27v-244q0 -79 -39.5 -116.5t-123.5 -37.5t-123.5 37.5t-39.5 116.5v244q0 21 -5 27.5t-19 8.5v12z" />
    <glyph glyph-name="v" unicode="v" horiz-adv-x="444" 
d="M301 440h108v-12q-17 0 -23.5 -7t-11.5 -25l-99 -341q-7 -23 -7 -28q0 -10 11 -15v-12h-112v13q7 2 7 12q0 2 -9 32l-101 321q-1 3 -3 10.5t-3 10t-2.5 7.5t-3 7t-4 5.5t-5 5t-6 2.5t-7.5 2v12h100v-12q-14 -4 -14 -16q0 -1 8 -29l99 -317h2l89 308q7 22 7 34
q0 17 -20 20v12z" />
    <glyph glyph-name="w" unicode="w" horiz-adv-x="611" 
d="M28 440h102v-12q-19 -1 -19 -13q0 -10 5 -27l76 -284h2l62 271q5 20 5 36q0 13 -15 17v12h109v-12q-16 -1 -16 -16q0 -7 5 -27l72 -281h2l65 277q5 22 5 34q0 13 -18 13v12h100v-12q-25 0 -31 -30l-79 -343q-5 -22 -5 -25q0 -14 11 -18v-12h-98v12q5 0 9 3.5t4 8.5
q0 7 -7 33l-75 289h-2l-65 -293q-5 -20 -5 -27q0 -11 13 -14v-12h-98v9q11 3 11 13q0 5 -8 37l-88 335q-5 19 -11 25.5t-18 8.5v12z" />
    <glyph glyph-name="x" unicode="x" horiz-adv-x="444" 
d="M146 0h-102v12q6 0 11.5 3t11 9.5t7.5 10t8 13.5l5 10l99 164l-105 178q-9 15 -16 20t-21 8v12h130v-12q-28 -1 -28 -14q0 -8 12 -30l60 -102l60 95q16 25 16 34q0 13 -23 17v12h125v-12q-27 0 -42 -26l-102 -173l101 -171q2 -2 7 -11t7.5 -13t8 -9.5t11 -8.5t12.5 -4
v-12h-114v12q15 2 15 11t-13 32l-69 116l-73 -120q-13 -23 -13 -28q0 -7 14 -11v-12z" />
    <glyph glyph-name="y" unicode="y" horiz-adv-x="444" 
d="M189 48v142l-118 205q-15 27 -34 33v12h110v-12q-17 -2 -17 -11q0 -6 11 -26l81 -142l76 135q12 22 12 29q0 14 -17 15v12h104v-12q-13 -4 -17.5 -8.5t-12.5 -17.5l-116 -211v-143q0 -33 18 -36v-12h-98v12q18 3 18 36z" />
    <glyph glyph-name="z" unicode="z" horiz-adv-x="444" 
d="M65 10l227 382h-184q-24 0 -28 -24h-12v90h12q2 -11 7.5 -14.5t20.5 -3.5h271v-14l-217 -374h172q24 0 28 24h12v-94h-12q-4 18 -37 18h-260v10z" />
    <glyph glyph-name="braceleft" unicode="{" horiz-adv-x="389" 
d="M149 8v129q0 35 -15.5 53.5t-60.5 27.5q45 9 60.5 27.5t15.5 53.5v129q0 53 31 75.5t107 22.5v-12q-39 -6 -53.5 -27t-14.5 -64v-113q0 -41 -17 -61.5t-66 -29.5v-2q49 -9 66 -30t17 -61v-113q0 -43 14.5 -64t53.5 -27v-12q-76 0 -107 22.5t-31 75.5z" />
    <glyph glyph-name="bar" unicode="|" horiz-adv-x="222" 
d="M80 -250v1000h62v-1000h-62z" />
    <glyph glyph-name="braceright" unicode="}" horiz-adv-x="389" 
d="M240 137v-129q0 -53 -31 -75.5t-107 -22.5v12q39 6 53.5 27t14.5 64v113q0 40 17 61t66 30v2q-49 9 -66 29.5t-17 61.5v113q0 43 -14.5 64t-53.5 27v12q76 0 107 -22.5t31 -75.5v-129q0 -35 15.5 -53.5t60.5 -27.5q-45 -9 -60.5 -27.5t-15.5 -53.5z" />
    <glyph glyph-name="asciitilde" unicode="~" horiz-adv-x="600" 
d="M495 292l36 -54q-20 -27 -33 -42t-38 -29.5t-54 -14.5q-38 0 -104 34t-113 34q-51 0 -84 -72l-36 54q45 86 125 86q41 0 115 -34q76 -34 98 -34q19 0 36.5 12t27 24.5t24.5 35.5z" />
    <glyph glyph-name="uni00A0" unicode="&#xa0;" horiz-adv-x="250" 
 />
    <glyph glyph-name="exclamdown" unicode="&#xa1;" horiz-adv-x="278" 
d="M114 372h56v-12q-13 -4 -13 -23q0 -8 2 -34l21 -240q4 -51 19 -57v-12h-110v12q11 4 14 16t5 41l17 240q2 26 2 34q0 19 -13 23v12zM138 428q-21 0 -35 14.5t-14 34.5t14 34.5t35 14.5t35 -14.5t14 -34.5t-14 -34.5t-35 -14.5z" />
    <glyph glyph-name="cent" unicode="&#xa2;" 
d="M298 432l37 122h37l-38 -131q12 -2 35 -16.5t28 -14.5q11 0 16 4l8 -7l-61 -85l-9 6q4 12 4 16q0 28 -36 42l-88 -301q11 -5 36 -5q29 0 61.5 20.5t32.5 37.5q0 11 -5 21l9 6l66 -86l-8 -7q-4 4 -10 4q-4 0 -56 -26t-94 -26q-27 0 -48 7l-37 -128h-41l43 140
q-49 22 -77.5 70.5t-28.5 113.5q0 94 49 158.5t138 66.5q24 0 37 -2zM197 82l86 294q-10 2 -27 2q-54 0 -86 -44.5t-32 -112.5q0 -43 15 -82t44 -57z" />
    <glyph glyph-name="sterling" unicode="&#xa3;" 
d="M51 -6v69q36 20 54 59.5t18 87.5q0 24 -5 40h-67v42h64q-16 50 -16 88q0 72 43.5 112t112.5 40q75 0 123 -38.5t52 -110.5h-70q-2 42 -27 64.5t-68 22.5q-45 0 -68.5 -24.5t-23.5 -69.5q0 -38 14 -84h82v-42h-77q1 -7 1 -20q0 -44 -17.5 -87t-50.5 -63l2 -2q35 13 68 13
q25 0 69 -14q41 -15 60 -15q63 0 63 79h70v-27q0 -48 -34.5 -84t-87.5 -36q-43 0 -96 21q-54 20 -80 20q-23 0 -57 -19t-51 -22z" />
    <glyph glyph-name="currency" unicode="&#xa4;" 
d="M434 485l37 -37l-48 -48q47 -54 47 -137q0 -82 -47 -136l48 -48l-37 -37l-49 49q-57 -48 -135 -48q-79 0 -135 48l-50 -49l-37 37l49 48q-47 53 -47 136q0 84 47 137l-49 48l37 37l50 -50q56 48 135 48q78 0 135 -48zM250 423q-69 0 -112.5 -45t-43.5 -115t43.5 -115
t112.5 -45q68 0 112 45t44 115t-44 115t-112 45z" />
    <glyph glyph-name="yen" unicode="&#xa5;" 
d="M215 48v138h-144v42h144v10l-24 40h-120v42h96l-73 129q-2 3 -8 14.5t-9.5 16t-9.5 13t-12.5 13.5t-13.5 8v12h122v-10q-16 -6 -16 -19q0 -3 18 -35l91 -161l91 162q16 29 16 36q0 15 -19 15v12h115v-12q-14 -3 -26 -22l-99 -172h99v-42h-123l-21 -36v-14h144v-42h-144
v-138q0 -21 6 -27.5t25 -8.5v-12h-136v12q19 2 25 8.5t6 27.5z" />
    <glyph glyph-name="brokenbar" unicode="&#xa6;" horiz-adv-x="222" 
d="M80 -175v350h62v-350h-62zM80 325v350h62v-350h-62z" />
    <glyph glyph-name="section" unicode="&#xa7;" 
d="M401 464l-45 -40q-51 56 -108 56q-26 0 -48 -15t-22 -35q0 -29 27 -49.5t65 -34t76 -29t65 -43.5t27 -67q0 -48 -30 -72.5t-77 -23.5l-2 -2q72 -22 72 -89q0 -58 -40.5 -86t-100.5 -28q-44 0 -89.5 19.5t-79.5 50.5l46 47q52 -65 131 -65q28 0 47.5 16.5t19.5 44.5
q0 24 -27.5 42t-66.5 32t-78.5 31t-67 48t-27.5 74q0 36 30 60t67 24v2q-53 33 -53 85q0 53 36 84t104 31q40 0 81 -19.5t68 -48.5zM382 197q0 33 -76.5 69t-121.5 36q-60 0 -60 -52q0 -41 76 -77t121 -36q61 0 61 60z" />
    <glyph glyph-name="dieresis" unicode="&#xa8;" horiz-adv-x="278" 
d="M29 503v102h64v-102h-64zM185 503v102h64v-102h-64z" />
    <glyph glyph-name="copyright" unicode="&#xa9;" horiz-adv-x="600" 
d="M300 -6q-113 0 -188.5 77t-75.5 191t75.5 192t188.5 78t188.5 -77.5t75.5 -192.5q0 -114 -75.5 -191t-188.5 -77zM300 36q88 0 147 66t59 160q0 95 -59 161.5t-147 66.5q-87 0 -146.5 -67t-59.5 -161t59 -160t147 -66zM413 203h15l-11 -60q-1 -10 -22 -17
q-61 -14 -80 -14q-76 0 -120.5 41.5t-44.5 117.5q0 61 41 108t129 47q36 0 79 -15q17 -5 17 -16v-58h-16q-17 65 -80 65q-41 0 -63 -34.5t-23 -92.5q-2 -139 87 -139q62 0 92 67z" />
    <glyph glyph-name="ordfeminine" unicode="&#xaa;" horiz-adv-x="266" 
d="M72 264h-70v8q10 3 17 20l72 195q5 15 5 21q0 7 -6 10v8h86v-8q-3 -1 -3 -11q0 -4 5 -19l71 -200q4 -13 14 -16v-8h-70v8q7 2 7 9q0 1 -4 15l-13 34h-101l-14 -34q-4 -14 -4 -17q0 -5 8 -7v-8zM131 482l-39 -112h80l-39 112h-2z" />
    <glyph glyph-name="guillemotleft" unicode="&#xab;" 
d="M417 367l-122 -147l122 -147h-64l-122 147l122 147h64zM278 367l-122 -147l122 -147h-64l-122 147l122 147h64z" />
    <glyph glyph-name="logicalnot" unicode="&#xac;" horiz-adv-x="600" 
d="M458 104v170h-378v62h440v-232h-62z" />
    <glyph glyph-name="uni00AD" unicode="&#xad;" horiz-adv-x="333" 
d="M283 250v-30v-30h-234v60h234z" />
    <glyph glyph-name="registered" unicode="&#xae;" horiz-adv-x="600" 
d="M174 392v20h149q38 0 62.5 -19t24.5 -55q0 -26 -16 -48t-41 -30l44 -63q45 -62 46 -63v-9h-64q-11 0 -22.5 17.5t-29 52.5t-30.5 55h-25v-73q0 -21 4.5 -26t29.5 -6v-20h-132v20q24 1 29 6t5 26v183q0 20 -5 25.5t-29 6.5zM272 388v-114h24q44 0 44 61q0 31 -10.5 42
t-32.5 11h-25zM300 -6q-113 0 -188.5 77t-75.5 191t75.5 192t188.5 78t188.5 -77.5t75.5 -192.5q0 -114 -75.5 -191t-188.5 -77zM300 36q88 0 147 66t59 160q0 95 -59 161.5t-147 66.5q-87 0 -146.5 -67t-59.5 -161t59 -160t147 -66z" />
    <glyph glyph-name="macron" unicode="&#xaf;" horiz-adv-x="278" 
d="M-8 529v48h295v-48h-295z" />
    <glyph glyph-name="degree" unicode="&#xb0;" horiz-adv-x="400" 
d="M103 389q0 -41 28.5 -71t68.5 -30t68.5 30t28.5 71t-28.5 71t-68.5 30t-68.5 -30t-28.5 -71zM57 389q0 60 41.5 101.5t101.5 41.5t101.5 -41.5t41.5 -101.5t-41.5 -101.5t-101.5 -41.5t-101.5 41.5t-41.5 101.5z" />
    <glyph glyph-name="plusminus" unicode="&#xb1;" horiz-adv-x="600" 
d="M269 299v141h62v-141h189v-62h-189v-141h-62v141h-189v62h189zM80 0v62h440v-62h-440z" />
    <glyph glyph-name="twosuperior" unicode="&#xb2;" horiz-adv-x="300" 
d="M87 418l-58 54l6 4q1 0 3.5 -0.5t3.5 -0.5q7 0 22 18q35 39 93 39q47 0 77 -23t30 -63q0 -37 -32 -68t-74 -60.5t-55 -54.5h141q17 0 21 17h12v-77h-12q-3 10 -21 10h-184q-17 0 -19 -10h-12v15q0 32 18 61t43 49.5t50.5 39t43.5 36.5t18 34q0 20 -12.5 32t-33.5 12
q-30 0 -48 -13t-18 -33q0 -5 2 -15z" />
    <glyph glyph-name="threesuperior" unicode="&#xb3;" horiz-adv-x="300" 
d="M82 431l-57 46l8 10q2 -1 5 -1q6 0 8 2q20 15 30.5 22t31.5 14.5t44 7.5q46 0 79 -22.5t33 -62.5q0 -45 -43 -66q53 -17 53 -75q0 -42 -35 -69.5t-93 -27.5q-29 0 -52 7.5t-36 15t-17 7.5q-9 0 -13 -6l-14 4l39 75l13 -4q-1 -3 -1 -9q-3 -16 23 -28t60 -12q64 0 64 45
q0 26 -11.5 38.5t-44.5 12.5q-37 0 -41 -12h-12v74h12q4 -12 36 -12q51 0 51 43q0 34 -50 34q-27 0 -46 -10.5t-19 -20.5q0 -6 2 -12z" />
    <glyph glyph-name="acute" unicode="&#xb4;" horiz-adv-x="278" 
d="M265 632l-137 -140h-51l111 140h77z" />
    <glyph glyph-name="mu" unicode="&#xb5;" 
d="M87 -140v532q0 21 -5 27.5t-19 8.5v12h106v-12q-11 -2 -15.5 -9t-4.5 -27v-260q0 -39 24 -64.5t77 -25.5t77 25.5t24 64.5v260q0 21 -5 27.5t-17 8.5v12h104v-12q-11 -2 -15.5 -9t-4.5 -27v-244q0 -79 -39.5 -116.5t-123.5 -37.5q-64 0 -101 21v-155q0 -33 18 -36v-12
h-98v12q18 3 18 36z" />
    <glyph glyph-name="paragraph" unicode="&#xb6;" horiz-adv-x="400" 
d="M181 -115v335q-73 0 -110 42.5t-37 115.5q0 78 36 113t120 35h184v-18q-40 -3 -50.5 -9.5t-10.5 -30.5v-583h-43v614h-45v-614h-44z" />
    <glyph glyph-name="periodcentered" unicode="&#xb7;" horiz-adv-x="250" 
d="M125 269q21 0 35 -14.5t14 -34.5t-14 -34.5t-35 -14.5t-35 14.5t-14 34.5t14 34.5t35 14.5z" />
    <glyph glyph-name="cedilla" unicode="&#xb8;" horiz-adv-x="278" 
d="M23 -188l15 30q37 -14 59 -14q28 0 49.5 10.5t21.5 35.5q0 38 -52 38q-27 0 -42 -7l-15 13l60 82h38l-46 -57l2 -1q15 6 31 6q36 0 59 -20t23 -57t-34 -58t-72 -21q-53 0 -97 20z" />
    <glyph glyph-name="onesuperior" unicode="&#xb9;" horiz-adv-x="300" 
d="M117 529h87v-12q-14 -2 -14 -21v-250q0 -21 14 -21v-12h-90v12q14 0 14 21v201q-1 -1 -15.5 -7t-15.5 -16h-12v66h11q1 -8 14 -8q8 0 14.5 7t6.5 17q0 8 -14 11v12z" />
    <glyph glyph-name="ordmasculine" unicode="&#xba;" horiz-adv-x="300" 
d="M150 532q60 0 93 -38.5t33 -97.5t-33 -97.5t-93 -38.5t-93 38.5t-33 97.5t33 97.5t93 38.5zM150 304q39 -1 55.5 25t16.5 67q0 92 -72 92t-72 -92q0 -40 17 -66.5t55 -25.5z" />
    <glyph glyph-name="guillemotright" unicode="&#xbb;" 
d="M205 220l-122 147h64l122 -147l-122 -147h-64zM344 220l-122 147h64l122 -147l-122 -147h-64z" />
    <glyph glyph-name="onequarter" unicode="&#xbc;" horiz-adv-x="750" 
d="M590 239l-86 -132h88v132h-2zM564 316h99v-12q-15 -4 -15 -21v-178h15q23 0 23 13h12v-72h-12q-1 9 -5.5 11t-17.5 2h-15v-25q0 -20 20 -22v-12h-85v12q9 2 9 22v25h-124q-19 0 -21 -13h-12v50l126 182q11 16 11 20q0 6 -8 6v12zM192 -6h-69l433 538h68zM114 529h87v-12
q-14 -2 -14 -21v-250q0 -21 14 -21v-12h-90v12q14 0 14 21v201q-1 -1 -15.5 -7t-15.5 -16h-12v66h11q1 -8 14 -8q7 0 14 7t7 17q0 8 -14 11v12z" />
    <glyph glyph-name="onehalf" unicode="&#xbd;" horiz-adv-x="750" 
d="M156 -6h-69l433 538h68zM114 529h87v-12q-14 -2 -14 -21v-250q0 -21 14 -21v-12h-90v12q14 0 14 21v201q-1 -1 -15.5 -7t-15.5 -16h-12v66h11q1 -8 14 -8q7 0 14 7t7 17q0 8 -14 11v12zM499 205l-58 54l6 4q1 0 3.5 -0.5t3.5 -0.5q7 0 22 18q35 39 93 39q47 0 77 -23
t30 -63q0 -37 -32 -68t-74 -60.5t-55 -54.5h141q17 0 21 17h12v-77h-12q-3 10 -21 10h-184q-17 0 -19 -10h-12v15q0 32 18 61t43.5 49.5t50.5 39t43 36.5t18 34q0 20 -12.5 32t-33.5 12q-30 0 -48 -13t-18 -33q0 -5 2 -15z" />
    <glyph glyph-name="threequarters" unicode="&#xbe;" horiz-adv-x="750" 
d="M590 239l-86 -132h88v132h-2zM564 316h99v-12q-15 -4 -15 -21v-178h15q23 0 23 13h12v-72h-12q-1 9 -5.5 11t-17.5 2h-15v-25q0 -20 20 -22v-12h-85v12q9 2 9 22v25h-124q-19 0 -21 -13h-12v50l126 182q11 16 11 20q0 6 -8 6v12zM216 -6h-69l433 538h68zM108 431l-57 46
l8 10q2 -1 5 -1q6 0 8 2q20 15 30.5 22t31.5 14.5t44 7.5q46 0 79 -22.5t33 -62.5q0 -45 -43 -66q53 -17 53 -75q0 -42 -35 -69.5t-93 -27.5q-29 0 -52 7.5t-36 15t-17 7.5q-9 0 -13 -6l-14 4l39 75l13 -4q-1 -3 -1 -9q-3 -16 23 -28t60 -12q64 0 64 45q0 26 -11.5 38.5
t-44.5 12.5q-37 0 -41 -12h-12v74h12q4 -12 36 -12q51 0 51 43q0 34 -50 34q-27 0 -46 -10.5t-19 -20.5q0 -6 2 -12z" />
    <glyph glyph-name="questiondown" unicode="&#xbf;" horiz-adv-x="444" 
d="M317 120l69 -69l-7 -7q-6 2 -8 2q-8 0 -27 -13t-49.5 -26t-65.5 -13q-53 0 -92.5 34t-39.5 86q0 36 16 68.5t35.5 52t35.5 45t16 48.5q0 28 -20 30v12h95v-14q-12 -1 -15.5 -11.5t-3.5 -36.5q0 -32 -44.5 -90t-44.5 -93q0 -69 74 -69q29 0 50 11t21 33q0 11 -2 17z
M228 434q-21 0 -35 14.5t-14 34.5t14 34.5t35 14.5t35 -14.5t14 -34.5t-14 -34.5t-35 -14.5z" />
    <glyph glyph-name="Agrave" unicode="&#xc0;" 
d="M123 0h-96v8q10 8 12 14l139 431q11 33 11 42q0 17 -15 19v12h139v-12q-12 -3 -12 -19q0 -9 11 -42l143 -417q7 -20 18 -24v-12h-105v12q14 5 14 17q0 9 -19 62.5t-21 61.5h-197q-3 -12 -13 -40.5t-17 -50.5t-7 -27q0 -22 15 -26v-9zM239 459l-74 -246h155l-79 246h-2z
M261 559l-137 140h77l111 -140h-51z" />
    <glyph glyph-name="Aacute" unicode="&#xc1;" 
d="M123 0h-96v8q10 8 12 14l139 431q11 33 11 42q0 17 -15 19v12h139v-12q-12 -3 -12 -19q0 -9 11 -42l143 -417q7 -20 18 -24v-12h-105v12q14 5 14 17q0 9 -19 62.5t-21 61.5h-197q-3 -12 -13 -40.5t-17 -50.5t-7 -27q0 -22 15 -26v-9zM239 459l-74 -246h155l-79 246h-2z
M376 699l-137 -140h-51l111 140h77z" />
    <glyph glyph-name="Acircumflex" unicode="&#xc2;" 
d="M123 0h-96v8q10 8 12 14l139 431q11 33 11 42q0 17 -15 19v12h139v-12q-12 -3 -12 -19q0 -9 11 -42l143 -417q7 -20 18 -24v-12h-105v12q14 5 14 17q0 9 -19 62.5t-21 61.5h-197q-3 -12 -13 -40.5t-17 -50.5t-7 -27q0 -22 15 -26v-9zM239 459l-74 -246h155l-79 246h-2z
M104 559l112 140h67l114 -140h-65l-82 102l-82 -102h-64z" />
    <glyph glyph-name="Atilde" unicode="&#xc3;" 
d="M123 0h-96v8q10 8 12 14l139 431q11 33 11 42q0 17 -15 19v12h139v-12q-12 -3 -12 -19q0 -9 11 -42l143 -417q7 -20 18 -24v-12h-105v12q14 5 14 17q0 9 -19 62.5t-21 61.5h-197q-3 -12 -13 -40.5t-17 -50.5t-7 -27q0 -22 15 -26v-9zM239 459l-74 -246h155l-79 246h-2z
M132 573h-38q2 37 26.5 66t61.5 29q25 0 73 -22t69 -22q35 0 44 49h38q-12 -95 -87 -95q-22 0 -72 22q-48 22 -69 22q-38 0 -46 -49z" />
    <glyph glyph-name="Adieresis" unicode="&#xc4;" 
d="M123 0h-96v8q10 8 12 14l139 431q11 33 11 42q0 17 -15 19v12h139v-12q-12 -3 -12 -19q0 -9 11 -42l143 -417q7 -20 18 -24v-12h-105v12q14 5 14 17q0 9 -19 62.5t-21 61.5h-197q-3 -12 -13 -40.5t-17 -50.5t-7 -27q0 -22 15 -26v-9zM239 459l-74 -246h155l-79 246h-2z
M140 570v102h64v-102h-64zM296 570v102h64v-102h-64z" />
    <glyph glyph-name="Aring" unicode="&#xc5;" 
d="M123 0h-96v8q10 8 12 14l139 431q11 33 11 42q0 17 -15 19v12h139v-12q-12 -3 -12 -19q0 -9 11 -42l143 -417q7 -20 18 -24v-12h-105v12q14 5 14 17q0 9 -19 62.5t-21 61.5h-197q-3 -12 -13 -40.5t-17 -50.5t-7 -27q0 -22 15 -26v-9zM239 459l-74 -246h155l-79 246h-2z
M250 555q-40 0 -67.5 27.5t-27.5 67.5q0 39 27.5 67t67.5 28t67.5 -28t27.5 -67q0 -40 -27.5 -67.5t-67.5 -27.5zM250 705q-23 0 -39 -16t-16 -39t16 -39t39 -16t39 16t16 39t-16 39t-39 16z" />
    <glyph glyph-name="AE" unicode="&#xc6;" horiz-adv-x="833" 
d="M224 216h167v228q0 36 -19 36q-13 0 -29 -31zM156 1h-131v11q28 11 49 52l199 388q20 38 20 48q0 12 -29 14v12h457q25 0 28 18h12v-105h-12q-3 25 -36 25h-248v-162h183q33 0 36 23h12v-111h-12q-1 15 -11 21q-7 5 -25 5h-183v-178h255q33 0 36 23h12v-103h-12
q-3 18 -36 18h-352v12q13 2 18 8.5t5 27.5v106h-198l-40 -79q-16 -32 -16 -41q0 -14 19 -22v-11z" />
    <glyph glyph-name="Ccedilla" unicode="&#xc7;" 
d="M447 473l8 -4l-61 -87l-10 5q2 12 2 16q0 21 -36 44t-85 23q-71 0 -112 -56.5t-41 -150.5q0 -95 42 -151t117 -56q44 0 83.5 26t39.5 46q0 14 -7 25l15 6l68 -94l-11 -7q-8 8 -18 8q-2 0 -23.5 -18t-60.5 -36t-82 -18l-41 -51l2 -1q15 6 31 6q36 0 59 -20t23 -57t-34 -58
t-72 -21q-53 0 -97 20l15 30q37 -14 59 -14q28 0 49.5 10.5t21.5 35.5q0 38 -52 38q-27 0 -42 -7l-15 13l58 79q-96 11 -149 84t-53 182q0 117 61.5 193t165.5 76q45 0 85.5 -16t62.5 -31.5t23 -15.5q5 0 11 4z" />
    <glyph glyph-name="Egrave" unicode="&#xc8;" 
d="M85 48v430q0 20 -5 27t-16 9v12h335q25 0 28 18h12v-105h-12q-3 25 -36 25h-232v-162h167q33 0 36 23h12v-111h-12q-1 15 -11 21q-7 5 -25 5h-167v-178h239q33 0 36 23h12v-103h-12q-3 18 -36 18h-334v12q11 2 16 9t5 27zM261 559l-137 140h77l111 -140h-51z" />
    <glyph glyph-name="Eacute" unicode="&#xc9;" 
d="M85 48v430q0 20 -5 27t-16 9v12h335q25 0 28 18h12v-105h-12q-3 25 -36 25h-232v-162h167q33 0 36 23h12v-111h-12q-1 15 -11 21q-7 5 -25 5h-167v-178h239q33 0 36 23h12v-103h-12q-3 18 -36 18h-334v12q11 2 16 9t5 27zM376 699l-137 -140h-51l111 140h77z" />
    <glyph glyph-name="Ecircumflex" unicode="&#xca;" 
d="M85 48v430q0 20 -5 27t-16 9v12h335q25 0 28 18h12v-105h-12q-3 25 -36 25h-232v-162h167q33 0 36 23h12v-111h-12q-1 15 -11 21q-7 5 -25 5h-167v-178h239q33 0 36 23h12v-103h-12q-3 18 -36 18h-334v12q11 2 16 9t5 27zM104 559l112 140h67l114 -140h-65l-82 102
l-82 -102h-64z" />
    <glyph glyph-name="Edieresis" unicode="&#xcb;" 
d="M85 48v430q0 20 -5 27t-16 9v12h335q25 0 28 18h12v-105h-12q-3 25 -36 25h-232v-162h167q33 0 36 23h12v-111h-12q-1 15 -11 21q-7 5 -25 5h-167v-178h239q33 0 36 23h12v-103h-12q-3 18 -36 18h-334v12q11 2 16 9t5 27zM140 570v102h64v-102h-64zM296 570v102h64v-102
h-64z" />
    <glyph glyph-name="Igrave" unicode="&#xcc;" horiz-adv-x="278" 
d="M207 0h-136v12q19 2 25 8.5t6 27.5v430q0 21 -6 27.5t-25 8.5v12h136v-12q-19 -2 -25 -8.5t-6 -27.5v-430q0 -21 6 -27.5t25 -8.5v-12zM150 559l-137 140h77l111 -140h-51z" />
    <glyph glyph-name="Iacute" unicode="&#xcd;" horiz-adv-x="278" 
d="M207 0h-136v12q19 2 25 8.5t6 27.5v430q0 21 -6 27.5t-25 8.5v12h136v-12q-19 -2 -25 -8.5t-6 -27.5v-430q0 -21 6 -27.5t25 -8.5v-12zM265 699l-137 -140h-51l111 140h77z" />
    <glyph glyph-name="Icircumflex" unicode="&#xce;" horiz-adv-x="278" 
d="M207 0h-136v12q19 2 25 8.5t6 27.5v430q0 21 -6 27.5t-25 8.5v12h136v-12q-19 -2 -25 -8.5t-6 -27.5v-430q0 -21 6 -27.5t25 -8.5v-12zM-7 559l112 140h67l114 -140h-65l-82 102l-82 -102h-64z" />
    <glyph glyph-name="Idieresis" unicode="&#xcf;" horiz-adv-x="278" 
d="M207 0h-136v12q19 2 25 8.5t6 27.5v430q0 21 -6 27.5t-25 8.5v12h136v-12q-19 -2 -25 -8.5t-6 -27.5v-430q0 -21 6 -27.5t25 -8.5v-12zM29 570v102h64v-102h-64zM185 570v102h64v-102h-64z" />
    <glyph glyph-name="Eth" unicode="&#xd0;" horiz-adv-x="556" 
d="M163 464v-169h112v-62h-112v-171h61q102 0 151.5 43t49.5 160q0 116 -44 157.5t-142 41.5h-76zM89 48v185h-54v62h54v183q0 33 -19 36v12h180q124 -1 186.5 -67.5t62.5 -189.5q0 -147 -69.5 -208t-218.5 -61h-141v12q19 3 19 36z" />
    <glyph glyph-name="Ntilde" unicode="&#xd1;" horiz-adv-x="556" 
d="M177 0h-107v12q18 3 18 36v430q0 20 -4.5 27t-15.5 9v12h152v-12q-21 0 -21 -13q0 -5 3.5 -12.5t12.5 -22t13 -20.5l170 -292h4v324q0 21 -5 27.5t-19 8.5v12h113v-12q-14 0 -18.5 -3.5t-4.5 -15.5v-447q0 -21 6 -27.5t22 -8.5v-12h-128v12q26 5 26 13q0 5 -4.5 13
t-13.5 22t-12 19l-208 357h-2v-388q0 -21 5 -27.5t18 -8.5v-12zM160 573h-38q2 37 26.5 66t61.5 29q25 0 73 -22t69 -22q35 0 44 49h38q-12 -95 -87 -95q-22 0 -72 22q-48 22 -69 22q-38 0 -46 -49z" />
    <glyph glyph-name="Ograve" unicode="&#xd2;" horiz-adv-x="556" 
d="M278 470q-75 0 -117 -56t-42 -151t42 -151t117 -56t117 56t42 151t-42 151t-117 56zM511 263q0 -117 -63.5 -193t-169.5 -76t-169.5 76t-63.5 193t63.5 193t169.5 76t169.5 -76t63.5 -193zM289 559l-137 140h77l111 -140h-51z" />
    <glyph glyph-name="Oacute" unicode="&#xd3;" horiz-adv-x="556" 
d="M278 470q-75 0 -117 -56t-42 -151t42 -151t117 -56t117 56t42 151t-42 151t-117 56zM511 263q0 -117 -63.5 -193t-169.5 -76t-169.5 76t-63.5 193t63.5 193t169.5 76t169.5 -76t63.5 -193zM404 699l-137 -140h-51l111 140h77z" />
    <glyph glyph-name="Ocircumflex" unicode="&#xd4;" horiz-adv-x="556" 
d="M278 470q-75 0 -117 -56t-42 -151t42 -151t117 -56t117 56t42 151t-42 151t-117 56zM511 263q0 -117 -63.5 -193t-169.5 -76t-169.5 76t-63.5 193t63.5 193t169.5 76t169.5 -76t63.5 -193zM132 559l112 140h67l114 -140h-65l-82 102l-82 -102h-64z" />
    <glyph glyph-name="Otilde" unicode="&#xd5;" horiz-adv-x="556" 
d="M278 470q-75 0 -117 -56t-42 -151t42 -151t117 -56t117 56t42 151t-42 151t-117 56zM511 263q0 -117 -63.5 -193t-169.5 -76t-169.5 76t-63.5 193t63.5 193t169.5 76t169.5 -76t63.5 -193zM160 573h-38q2 37 26.5 66t61.5 29q25 0 73 -22t69 -22q35 0 44 49h38
q-12 -95 -87 -95q-22 0 -72 22q-48 22 -69 22q-38 0 -46 -49z" />
    <glyph glyph-name="Odieresis" unicode="&#xd6;" horiz-adv-x="556" 
d="M278 470q-75 0 -117 -56t-42 -151t42 -151t117 -56t117 56t42 151t-42 151t-117 56zM511 263q0 -117 -63.5 -193t-169.5 -76t-169.5 76t-63.5 193t63.5 193t169.5 76t169.5 -76t63.5 -193zM168 570v102h64v-102h-64zM324 570v102h64v-102h-64z" />
    <glyph glyph-name="multiply" unicode="&#xd7;" horiz-adv-x="600" 
d="M299 176l-175 -176l-44 44l177 176l-177 176l44 44l175 -176l177 176l44 -44l-177 -176l177 -176l-44 -44z" />
    <glyph glyph-name="Oslash" unicode="&#xd8;" horiz-adv-x="556" 
d="M163 110l184 344q-29 16 -69 16q-75 0 -117 -56t-42 -151q0 -97 44 -153zM491 618l-72 -135q92 -75 92 -220q0 -117 -63.5 -193t-169.5 -76q-60 0 -106 26l-63 -118h-57l78 147q-85 76 -85 214q0 117 63.5 193t169.5 76q55 0 99 -22l57 108h57zM387 423l-185 -346
q32 -21 76 -21q75 0 117 56t42 151q0 105 -50 160z" />
    <glyph glyph-name="Ugrave" unicode="&#xd9;" horiz-adv-x="556" 
d="M372 526h114v-12q-11 -2 -16 -9t-5 -27v-338q0 -63 -50.5 -104.5t-136.5 -41.5t-136.5 41.5t-50.5 104.5v338q0 20 -5 27t-16 9v12h114v-12q-11 -2 -15 -8.5t-4 -27.5v-295q0 -65 24.5 -96t88.5 -31t88.5 31t24.5 96v295q0 21 -4 27.5t-15 8.5v12zM289 559l-137 140h77
l111 -140h-51z" />
    <glyph glyph-name="Uacute" unicode="&#xda;" horiz-adv-x="556" 
d="M372 526h114v-12q-11 -2 -16 -9t-5 -27v-338q0 -63 -50.5 -104.5t-136.5 -41.5t-136.5 41.5t-50.5 104.5v338q0 20 -5 27t-16 9v12h114v-12q-11 -2 -15 -8.5t-4 -27.5v-295q0 -65 24.5 -96t88.5 -31t88.5 31t24.5 96v295q0 21 -4 27.5t-15 8.5v12zM404 699l-137 -140h-51
l111 140h77z" />
    <glyph glyph-name="Ucircumflex" unicode="&#xdb;" horiz-adv-x="556" 
d="M372 526h114v-12q-11 -2 -16 -9t-5 -27v-338q0 -63 -50.5 -104.5t-136.5 -41.5t-136.5 41.5t-50.5 104.5v338q0 20 -5 27t-16 9v12h114v-12q-11 -2 -15 -8.5t-4 -27.5v-295q0 -65 24.5 -96t88.5 -31t88.5 31t24.5 96v295q0 21 -4 27.5t-15 8.5v12zM132 559l112 140h67
l114 -140h-65l-82 102l-82 -102h-64z" />
    <glyph glyph-name="Udieresis" unicode="&#xdc;" horiz-adv-x="556" 
d="M372 526h114v-12q-11 -2 -16 -9t-5 -27v-338q0 -63 -50.5 -104.5t-136.5 -41.5t-136.5 41.5t-50.5 104.5v338q0 20 -5 27t-16 9v12h114v-12q-11 -2 -15 -8.5t-4 -27.5v-295q0 -65 24.5 -96t88.5 -31t88.5 31t24.5 96v295q0 21 -4 27.5t-15 8.5v12zM168 570v102h64v-102
h-64zM324 570v102h64v-102h-64z" />
    <glyph glyph-name="Yacute" unicode="&#xdd;" horiz-adv-x="444" 
d="M256 244v-196q0 -21 6 -27.5t25 -8.5v-12h-136v12q19 2 25 8.5t6 27.5v189l-121 212q-1 2 -8 14t-10 16.5t-9 13t-12.5 13.5t-14.5 8v12h123v-10q-16 -3 -16 -14q0 -6 9 -24l100 -177l102 183q5 9 5 15q0 15 -19 15v12h115v-12q-14 -3 -26 -22zM348 699l-137 -140h-51
l111 140h77z" />
    <glyph glyph-name="Thorn" unicode="&#xde;" 
d="M159 360v-177h107q109 0 109 89q0 43 -25.5 65.5t-71.5 22.5h-119zM85 48v430q0 20 -5 27t-16 9v12h116v-12q-11 -2 -16 -9t-5 -27v-56h121q85 0 127 -41.5t42 -98.5q0 -86 -48.5 -123.5t-152.5 -37.5h-89v-73q0 -21 5 -27.5t18 -8.5v-12h-116v12q19 3 19 36z" />
    <glyph glyph-name="germandbls" unicode="&#xdf;" horiz-adv-x="888" 
d="M52 28l43 90l11 -5q0 -1 -0.5 -3t-1 -3.5l-1 -3t-0.5 -2.5q0 -19 35.5 -39t78.5 -20q41 0 73 22t32 68q0 31 -26.5 47.5t-64 24t-75.5 18t-64.5 38.5t-26.5 75q0 49 42 80t112 31q40 0 86 -12q6 -2 15.5 -5.5t15.5 -6t10 -2.5q6 0 19 9l8 -5l-43 -88l-9 4q1 2 1 11
q0 21 -37.5 34t-71.5 13q-38 0 -64 -19t-26 -45t19 -41.5t47.5 -21t62 -14.5t62 -19.5t47.5 -37.5t19 -68q0 -65 -47.5 -101.5t-114.5 -36.5q-50 0 -96 20q-10 4 -20 9.5t-15.5 8t-7.5 2.5q-7 0 -15 -11zM496 28l43 90l11 -5q0 -1 -0.5 -3t-1 -3.5l-1 -3t-0.5 -2.5
q0 -19 35.5 -39t78.5 -20q41 0 73 22t32 68q0 31 -26.5 47.5t-64.5 24t-75.5 18t-64 38.5t-26.5 75q0 49 42 80t112 31q40 0 86 -12q6 -2 15.5 -5.5t15.5 -6t10 -2.5q6 0 19 9l8 -5l-43 -88l-9 4q1 2 1 11q0 21 -37.5 34t-71.5 13q-38 0 -64 -19t-26 -45t19 -41.5t47.5 -21
t62 -14.5t62 -19.5t47.5 -37.5t19 -68q0 -65 -47.5 -101.5t-114.5 -36.5q-50 0 -96 20q-10 4 -20 9.5t-15.5 8t-7.5 2.5q-7 0 -15 -11z" />
    <glyph glyph-name="agrave" unicode="&#xe0;" horiz-adv-x="444" 
d="M121 0h-93v12q20 4 28 33l106 327q1 6 4 15l5 15t2 9q0 11 -12 17v12h126v-12q-8 -3 -8 -18q0 -4 10 -37l105 -334q6 -22 22 -27v-12h-92v12q11 2 11 15q0 2 -6 24l-22 69h-172l-21 -69q-6 -22 -6 -27q0 -10 13 -12v-12zM222 396l-70 -228h139l-67 228h-2zM233 492
l-137 140h77l111 -140h-51z" />
    <glyph glyph-name="aacute" unicode="&#xe1;" horiz-adv-x="444" 
d="M121 0h-93v12q20 4 28 33l106 327q1 6 4 15l5 15t2 9q0 11 -12 17v12h126v-12q-8 -3 -8 -18q0 -4 10 -37l105 -334q6 -22 22 -27v-12h-92v12q11 2 11 15q0 2 -6 24l-22 69h-172l-21 -69q-6 -22 -6 -27q0 -10 13 -12v-12zM222 396l-70 -228h139l-67 228h-2zM348 632
l-137 -140h-51l111 140h77z" />
    <glyph glyph-name="acircumflex" unicode="&#xe2;" horiz-adv-x="444" 
d="M121 0h-93v12q20 4 28 33l106 327q1 6 4 15l5 15t2 9q0 11 -12 17v12h126v-12q-8 -3 -8 -18q0 -4 10 -37l105 -334q6 -22 22 -27v-12h-92v12q11 2 11 15q0 2 -6 24l-22 69h-172l-21 -69q-6 -22 -6 -27q0 -10 13 -12v-12zM222 396l-70 -228h139l-67 228h-2zM76 492
l112 140h67l114 -140h-65l-82 102l-82 -102h-64z" />
    <glyph glyph-name="atilde" unicode="&#xe3;" horiz-adv-x="444" 
d="M121 0h-93v12q20 4 28 33l106 327q1 6 4 15l5 15t2 9q0 11 -12 17v12h126v-12q-8 -3 -8 -18q0 -4 10 -37l105 -334q6 -22 22 -27v-12h-92v12q11 2 11 15q0 2 -6 24l-22 69h-172l-21 -69q-6 -22 -6 -27q0 -10 13 -12v-12zM222 396l-70 -228h139l-67 228h-2zM104 506h-38
q2 37 26.5 66t61.5 29q25 0 73 -22t69 -22q35 0 44 49h38q-12 -95 -87 -95q-22 0 -72 22q-48 22 -69 22q-38 0 -46 -49z" />
    <glyph glyph-name="adieresis" unicode="&#xe4;" horiz-adv-x="444" 
d="M121 0h-93v12q20 4 28 33l106 327q1 6 4 15l5 15t2 9q0 11 -12 17v12h126v-12q-8 -3 -8 -18q0 -4 10 -37l105 -334q6 -22 22 -27v-12h-92v12q11 2 11 15q0 2 -6 24l-22 69h-172l-21 -69q-6 -22 -6 -27q0 -10 13 -12v-12zM222 396l-70 -228h139l-67 228h-2zM112 503v102
h64v-102h-64zM268 503v102h64v-102h-64z" />
    <glyph glyph-name="aring" unicode="&#xe5;" horiz-adv-x="444" 
d="M121 0h-93v12q20 4 28 33l106 327q1 6 4 15l5 15t2 9q0 11 -12 17v12h126v-12q-8 -3 -8 -18q0 -4 10 -37l105 -334q6 -22 22 -27v-12h-92v12q11 2 11 15q0 2 -6 24l-22 69h-172l-21 -69q-6 -22 -6 -27q0 -10 13 -12v-12zM222 396l-70 -228h139l-67 228h-2zM222 488
q-40 0 -67.5 27.5t-27.5 67.5q0 39 27.5 67t67.5 28t67.5 -28t27.5 -67q0 -40 -27.5 -67.5t-67.5 -27.5zM222 638q-23 0 -39 -16t-16 -39t16 -39t39 -16t39 16t16 39t-16 39t-39 16z" />
    <glyph glyph-name="ae" unicode="&#xe6;" horiz-adv-x="722" 
d="M250 440h354q28 0 32 18h12v-90h-12q-4 24 -28 24h-180v-144h115q24 0 28 26h12v-98h-12q-4 24 -28 24h-115v-152h189q24 0 28 26h12v-92h-12q-2 10 -9.5 14t-28.5 4h-261v12q11 2 15.5 9t4.5 27v108h-167l-56 -102q-15 -24 -15 -32t18 -10v-12h-104v12q9 1 15.5 6
t9.5 10t8.5 17t9.5 18l173 307q18 31 18 40q0 16 -26 18v12zM366 204v164q0 34 -17 34q-14 0 -26 -21l-95 -177h138z" />
    <glyph glyph-name="ccedilla" unicode="&#xe7;" horiz-adv-x="444" 
d="M395 396l7 -5l-49 -76l-9 3q3 33 -26.5 56.5t-67.5 23.5q-60 0 -98 -47.5t-38 -130.5q0 -87 34.5 -132.5t97.5 -45.5q38 0 67.5 25t29.5 46q0 6 -1 10l9 3l58 -74l-7 -5q-5 4 -13 4q-9 0 -27.5 -14t-48 -28.5t-66.5 -14.5l-41 -51l2 -1q15 6 31 6q36 0 59 -20t23 -57
t-34 -58t-72 -21q-53 0 -97 20l15 30q37 -14 59 -14q28 0 49.5 10.5t21.5 35.5q0 38 -52 38q-27 0 -42 -7l-15 13l58 79q-74 9 -117 65t-43 158q0 96 52 161t142 65q28 0 53 -9t38.5 -19.5t25.5 -19.5t18 -9q2 0 14 7z" />
    <glyph glyph-name="egrave" unicode="&#xe8;" horiz-adv-x="444" 
d="M98 48v344q0 33 -18 36v12h259q27 0 32 18h12v-90h-12q-4 24 -28 24h-183v-144h118q24 0 28 26h12v-98h-12q-4 24 -28 24h-118v-152h192q24 0 28 26h12v-92h-12q-2 10 -9.5 14t-28.5 4h-262v12q18 3 18 36zM233 492l-137 140h77l111 -140h-51z" />
    <glyph glyph-name="eacute" unicode="&#xe9;" horiz-adv-x="444" 
d="M98 48v344q0 33 -18 36v12h259q27 0 32 18h12v-90h-12q-4 24 -28 24h-183v-144h118q24 0 28 26h12v-98h-12q-4 24 -28 24h-118v-152h192q24 0 28 26h12v-92h-12q-2 10 -9.5 14t-28.5 4h-262v12q18 3 18 36zM348 632l-137 -140h-51l111 140h77z" />
    <glyph glyph-name="ecircumflex" unicode="&#xea;" horiz-adv-x="444" 
d="M98 48v344q0 33 -18 36v12h259q27 0 32 18h12v-90h-12q-4 24 -28 24h-183v-144h118q24 0 28 26h12v-98h-12q-4 24 -28 24h-118v-152h192q24 0 28 26h12v-92h-12q-2 10 -9.5 14t-28.5 4h-262v12q18 3 18 36zM76 492l112 140h67l114 -140h-65l-82 102l-82 -102h-64z" />
    <glyph glyph-name="edieresis" unicode="&#xeb;" horiz-adv-x="444" 
d="M98 48v344q0 33 -18 36v12h259q27 0 32 18h12v-90h-12q-4 24 -28 24h-183v-144h118q24 0 28 26h12v-98h-12q-4 24 -28 24h-118v-152h192q24 0 28 26h12v-92h-12q-2 10 -9.5 14t-28.5 4h-262v12q18 3 18 36zM112 503v102h64v-102h-64zM268 503v102h64v-102h-64z" />
    <glyph glyph-name="igrave" unicode="&#xec;" horiz-adv-x="278" 
d="M188 0h-98v12q18 3 18 36v344q0 33 -18 36v12h98v-12q-18 -3 -18 -36v-344q0 -33 18 -36v-12zM150 492l-137 140h77l111 -140h-51z" />
    <glyph glyph-name="iacute" unicode="&#xed;" horiz-adv-x="278" 
d="M188 0h-98v12q18 3 18 36v344q0 33 -18 36v12h98v-12q-18 -3 -18 -36v-344q0 -33 18 -36v-12zM265 632l-137 -140h-51l111 140h77z" />
    <glyph glyph-name="icircumflex" unicode="&#xee;" horiz-adv-x="278" 
d="M188 0h-98v12q18 3 18 36v344q0 33 -18 36v12h98v-12q-18 -3 -18 -36v-344q0 -33 18 -36v-12zM-7 492l112 140h67l114 -140h-65l-82 102l-82 -102h-64z" />
    <glyph glyph-name="idieresis" unicode="&#xef;" horiz-adv-x="278" 
d="M188 0h-98v12q18 3 18 36v344q0 33 -18 36v12h98v-12q-18 -3 -18 -36v-344q0 -33 18 -36v-12zM29 503v102h64v-102h-64zM185 503v102h64v-102h-64z" />
    <glyph glyph-name="eth" unicode="&#xf0;" 
d="M249 248v-48h-101v-152h71q83 2 119.5 37.5t36.5 135.5q0 90 -34 130.5t-113 40.5h-80v-144h101zM41 200v48h45v144q0 21 -5 27.5t-19 8.5v12h187q93 0 140.5 -58.5t47.5 -159.5q0 -125 -56.5 -173.5t-161.5 -48.5h-155v12q12 2 17 8.5t5 27.5v152h-45z" />
    <glyph glyph-name="ntilde" unicode="&#xf1;" 
d="M163 0h-99v12q13 2 18 8.5t5 27.5v344q0 33 -18 36v12h122v-12q-16 -2 -16 -14q0 -4 10 -21l169 -275h2v274q0 33 -19 36v12h93v-12q-18 -3 -18 -36v-344q0 -20 4.5 -27t15.5 -9v-12h-97v12q14 0 14 8t-15 32l-189 306h-2v-310q0 -20 4.5 -27t15.5 -9v-12zM132 506h-38
q2 37 26.5 66t61.5 29q25 0 73 -22t69 -22q35 0 44 49h38q-12 -95 -87 -95q-22 0 -72 22q-48 22 -69 22q-38 0 -46 -49z" />
    <glyph glyph-name="ograve" unicode="&#xf2;" 
d="M250 -6q-90 0 -142 65t-52 161t52 161t142 65t142 -65t52 -161t-52 -161t-142 -65zM250 42q68 0 102 52.5t34 125.5t-34 125.5t-102 52.5t-102 -52.5t-34 -125.5t34 -125.5t102 -52.5zM261 492l-137 140h77l111 -140h-51z" />
    <glyph glyph-name="oacute" unicode="&#xf3;" 
d="M250 -6q-90 0 -142 65t-52 161t52 161t142 65t142 -65t52 -161t-52 -161t-142 -65zM250 42q68 0 102 52.5t34 125.5t-34 125.5t-102 52.5t-102 -52.5t-34 -125.5t34 -125.5t102 -52.5zM376 632l-137 -140h-51l111 140h77z" />
    <glyph glyph-name="ocircumflex" unicode="&#xf4;" 
d="M250 -6q-90 0 -142 65t-52 161t52 161t142 65t142 -65t52 -161t-52 -161t-142 -65zM250 42q68 0 102 52.5t34 125.5t-34 125.5t-102 52.5t-102 -52.5t-34 -125.5t34 -125.5t102 -52.5zM104 492l112 140h67l114 -140h-65l-82 102l-82 -102h-64z" />
    <glyph glyph-name="otilde" unicode="&#xf5;" 
d="M250 -6q-90 0 -142 65t-52 161t52 161t142 65t142 -65t52 -161t-52 -161t-142 -65zM250 42q68 0 102 52.5t34 125.5t-34 125.5t-102 52.5t-102 -52.5t-34 -125.5t34 -125.5t102 -52.5zM132 506h-38q2 37 26.5 66t61.5 29q25 0 73 -22t69 -22q35 0 44 49h38
q-12 -95 -87 -95q-22 0 -72 22q-48 22 -69 22q-38 0 -46 -49z" />
    <glyph glyph-name="odieresis" unicode="&#xf6;" 
d="M250 -6q-90 0 -142 65t-52 161t52 161t142 65t142 -65t52 -161t-52 -161t-142 -65zM250 42q68 0 102 52.5t34 125.5t-34 125.5t-102 52.5t-102 -52.5t-34 -125.5t34 -125.5t102 -52.5zM140 503v102h64v-102h-64zM296 503v102h64v-102h-64z" />
    <glyph glyph-name="divide" unicode="&#xf7;" horiz-adv-x="600" 
d="M520 189h-440v62h440v-62zM244 401q0 23 16.5 39.5t39.5 16.5t39.5 -16.5t16.5 -39.5t-16.5 -39.5t-39.5 -16.5t-39.5 16.5t-16.5 39.5zM244 39q0 23 16.5 39.5t39.5 16.5t39.5 -16.5t16.5 -39.5t-16.5 -39.5t-39.5 -16.5t-39.5 16.5t-16.5 39.5z" />
    <glyph glyph-name="oslash" unicode="&#xf8;" 
d="M347 351l-158 -293q25 -16 61 -16q68 0 102 52.5t34 125.5q0 83 -39 131zM155 86l159 294q-26 18 -64 18q-68 0 -102 -52.5t-34 -125.5q0 -86 41 -134zM56 -100l73 138q-73 64 -73 182q0 96 52 161t142 65q48 0 88 -20l57 106h49l-71 -133q71 -62 71 -179q0 -96 -52 -161
t-142 -65q-48 0 -85 20l-61 -114h-48z" />
    <glyph glyph-name="ugrave" unicode="&#xf9;" 
d="M63 440h106v-12q-11 -2 -15.5 -9t-4.5 -27v-260q0 -39 24 -64.5t77 -25.5t77 25.5t24 64.5v260q0 21 -5 27.5t-17 8.5v12h104v-12q-11 -2 -15.5 -9t-4.5 -27v-244q0 -79 -39.5 -116.5t-123.5 -37.5t-123.5 37.5t-39.5 116.5v244q0 21 -5 27.5t-19 8.5v12zM261 492
l-137 140h77l111 -140h-51z" />
    <glyph glyph-name="uacute" unicode="&#xfa;" 
d="M63 440h106v-12q-11 -2 -15.5 -9t-4.5 -27v-260q0 -39 24 -64.5t77 -25.5t77 25.5t24 64.5v260q0 21 -5 27.5t-17 8.5v12h104v-12q-11 -2 -15.5 -9t-4.5 -27v-244q0 -79 -39.5 -116.5t-123.5 -37.5t-123.5 37.5t-39.5 116.5v244q0 21 -5 27.5t-19 8.5v12zM376 632
l-137 -140h-51l111 140h77z" />
    <glyph glyph-name="ucircumflex" unicode="&#xfb;" 
d="M63 440h106v-12q-11 -2 -15.5 -9t-4.5 -27v-260q0 -39 24 -64.5t77 -25.5t77 25.5t24 64.5v260q0 21 -5 27.5t-17 8.5v12h104v-12q-11 -2 -15.5 -9t-4.5 -27v-244q0 -79 -39.5 -116.5t-123.5 -37.5t-123.5 37.5t-39.5 116.5v244q0 21 -5 27.5t-19 8.5v12zM104 492
l112 140h67l114 -140h-65l-82 102l-82 -102h-64z" />
    <glyph glyph-name="udieresis" unicode="&#xfc;" 
d="M63 440h106v-12q-11 -2 -15.5 -9t-4.5 -27v-260q0 -39 24 -64.5t77 -25.5t77 25.5t24 64.5v260q0 21 -5 27.5t-17 8.5v12h104v-12q-11 -2 -15.5 -9t-4.5 -27v-244q0 -79 -39.5 -116.5t-123.5 -37.5t-123.5 37.5t-39.5 116.5v244q0 21 -5 27.5t-19 8.5v12zM140 503v102h64
v-102h-64zM296 503v102h64v-102h-64z" />
    <glyph glyph-name="yacute" unicode="&#xfd;" horiz-adv-x="444" 
d="M189 48v142l-118 205q-15 27 -34 33v12h110v-12q-17 -2 -17 -11q0 -6 11 -26l81 -142l76 135q12 22 12 29q0 14 -17 15v12h104v-12q-13 -4 -17.5 -8.5t-12.5 -17.5l-116 -211v-143q0 -33 18 -36v-12h-98v12q18 3 18 36zM348 632l-137 -140h-51l111 140h77z" />
    <glyph glyph-name="thorn" unicode="&#xfe;" horiz-adv-x="444" 
d="M96 48v344q0 21 -5 27.5t-19 8.5v12h102v-12q-16 -4 -16 -36v-36h103q66 0 100 -36.5t34 -89.5q0 -58 -42 -91t-108 -33h-87v-58q0 -32 16 -36v-12h-102v12q14 2 19 8.5t5 27.5zM158 308v-154h73q54 0 80 21.5t26 56.5q0 36 -21.5 56t-60.5 20h-97z" />
    <glyph glyph-name="ydieresis" unicode="&#xff;" horiz-adv-x="444" 
d="M189 48v142l-118 205q-15 27 -34 33v12h110v-12q-17 -2 -17 -11q0 -6 11 -26l81 -142l76 135q12 22 12 29q0 14 -17 15v12h104v-12q-13 -4 -17.5 -8.5t-12.5 -17.5l-116 -211v-143q0 -33 18 -36v-12h-98v12q18 3 18 36zM112 503v102h64v-102h-64zM268 503v102h64v-102
h-64z" />
    <glyph glyph-name="dotlessi" unicode="&#x131;" horiz-adv-x="278" 
d="M188 0h-98v12q18 3 18 36v344q0 33 -18 36v12h98v-12q-18 -3 -18 -36v-344q0 -33 18 -36v-12z" />
    <glyph glyph-name="Lslash" unicode="&#x141;" horiz-adv-x="444" 
d="M278 366v-66l-119 -52v-186h223q33 0 36 21h12v-101h-12q-3 18 -36 18h-318v12q11 2 16 9t5 27v168l-59 -26v66l59 26v196q0 20 -5 27t-16 9v12h116v-12q-11 -2 -16 -9t-5 -27v-164z" />
    <glyph glyph-name="lslash" unicode="&#x142;" horiz-adv-x="389" 
d="M147 214v-162h192q24 0 28 16h12v-86h-12q-2 11 -7.5 14.5t-20.5 3.5h-272v12q18 3 18 36v144l-45 -16v52l45 16v148q0 33 -18 36v12h98v-12q-18 -3 -18 -36v-126l105 38v-52z" />
    <glyph glyph-name="OE" unicode="&#x152;" horiz-adv-x="833" 
d="M401 185v146q0 84 -22 111.5t-87 27.5q-182 0 -182 -207q0 -96 43.5 -151.5t135.5 -55.5q64 0 88 28.5t24 100.5zM730 0h-469q-107 0 -166 67t-59 197q0 133 58.5 197.5t160.5 64.5h476q25 0 28 18h12v-105h-12q-3 25 -36 25h-248v-162h183q33 0 36 23h12v-111h-12
q-1 15 -11 21q-8 5 -25 5h-183v-178h255q33 0 36 23h12v-103h-12q-3 18 -36 18z" />
    <glyph glyph-name="oe" unicode="&#x153;" horiz-adv-x="722" 
d="M237 440h367q28 0 32 18h12v-90h-12q-4 24 -28 24h-184v-144h119q24 0 28 26h12v-98h-12q-4 24 -28 24h-119v-152h193q24 0 28 26h12v-92h-12q-2 10 -9.5 14t-28.5 4h-358q-89 0 -135.5 46t-46.5 154q0 122 38.5 181t131.5 59zM362 133v174q0 53 -17.5 68t-80.5 15
q-73 0 -104 -35.5t-31 -145.5q0 -82 28 -122t105 -40q60 0 80 17t20 69z" />
    <glyph glyph-name="Scaron" unicode="&#x160;" 
d="M52 32l63 113l10 -4q0 -46 38 -65.5t90 -19.5q48 0 86 23t38 67q0 36 -32 57.5t-77.5 32.5t-91.5 24.5t-78 44t-32 79.5q0 71 51.5 109.5t131.5 38.5q63 0 113 -20q45 -18 49 -18q5 0 12 5l9 -6l-51 -94l-10 5q0 31 -33.5 48.5t-85.5 17.5q-48 0 -84 -21t-36 -64
q0 -24 23 -40.5t57.5 -24t75 -19.5t75 -26.5t57.5 -46.5t23 -77q0 -74 -52.5 -115.5t-143.5 -41.5q-53 0 -111 22q-12 5 -24.5 10.5t-18.5 8.5t-8 3q-13 0 -21 -10zM216 559l-112 140h64l82 -102l82 102h65l-114 -140h-67z" />
    <glyph glyph-name="scaron" unicode="&#x161;" horiz-adv-x="444" 
d="M52 28l43 90l11 -5q0 -1 -0.5 -3t-1 -3.5l-1 -3t-0.5 -2.5q0 -19 35.5 -39t78.5 -20q41 0 73 22t32 68q0 31 -26.5 47.5t-64 24t-75.5 18t-64.5 38.5t-26.5 75q0 49 42 80t112 31q40 0 86 -12q6 -2 15.5 -5.5t15.5 -6t10 -2.5q6 0 19 9l8 -5l-43 -88l-9 4q1 2 1 11
q0 21 -37.5 34t-71.5 13q-38 0 -64 -19t-26 -45t19 -41.5t47.5 -21t62 -14.5t62 -19.5t47.5 -37.5t19 -68q0 -65 -47.5 -101.5t-114.5 -36.5q-50 0 -96 20q-10 4 -20 9.5t-15.5 8t-7.5 2.5q-7 0 -15 -11zM188 492l-112 140h64l82 -102l82 102h65l-114 -140h-67z" />
    <glyph glyph-name="Ydieresis" unicode="&#x178;" horiz-adv-x="444" 
d="M256 244v-196q0 -21 6 -27.5t25 -8.5v-12h-136v12q19 2 25 8.5t6 27.5v189l-121 212q-1 2 -8 14t-10 16.5t-9 13t-12.5 13.5t-14.5 8v12h123v-10q-16 -3 -16 -14q0 -6 9 -24l100 -177l102 183q5 9 5 15q0 15 -19 15v12h115v-12q-14 -3 -26 -22zM112 570v102h64v-102h-64z
M268 570v102h64v-102h-64z" />
    <glyph glyph-name="Zcaron" unicode="&#x17d;" horiz-adv-x="444" 
d="M399 501l-252 -439h199q33 0 36 23h12v-103h-12q-3 18 -36 18h-303v17l257 447h-212q-33 0 -36 -23h-12v103h12q3 -18 36 -18h311v-25zM188 559l-112 140h64l82 -102l82 102h65l-114 -140h-67z" />
    <glyph glyph-name="zcaron" unicode="&#x17e;" horiz-adv-x="444" 
d="M65 10l227 382h-184q-24 0 -28 -24h-12v90h12q2 -11 7.5 -14.5t20.5 -3.5h271v-14l-217 -374h172q24 0 28 24h12v-94h-12q-4 18 -37 18h-260v10zM188 492l-112 140h64l82 -102l82 102h65l-114 -140h-67z" />
    <glyph glyph-name="florin" unicode="&#x192;" 
d="M-1 -165l27 89l12 -3q0 -22 15 -37.5t42 -15.5q19 0 32 5t25.5 22t21 41.5t19 72.5t20 106t22.5 149h-102v42h109q13 121 46 173.5t105 52.5q25 0 54 -9q25 -9 28 -9q9 0 14 6l12 -4l-24 -92h-12q-1 24 -18.5 38t-42.5 14q-20 0 -35.5 -9t-24 -20.5t-15 -32.5t-9 -35
t-5.5 -39t-5 -34h102v-42h-110q-14 -97 -23 -153.5t-22.5 -115t-26 -87.5t-32 -54t-44 -33.5t-57.5 -8.5q-18 0 -47.5 11t-30.5 11q-6 0 -10 -3z" />
    <glyph glyph-name="circumflex" unicode="&#x2c6;" horiz-adv-x="278" 
d="M-7 492l112 140h67l114 -140h-65l-82 102l-82 -102h-64z" />
    <glyph glyph-name="caron" unicode="&#x2c7;" horiz-adv-x="278" 
d="M105 492l-112 140h64l82 -102l82 102h65l-114 -140h-67z" />
    <glyph glyph-name="uni02C9" unicode="&#x2c9;" horiz-adv-x="278" 
d="M-8 529v48h295v-48h-295z" />
    <glyph glyph-name="breve" unicode="&#x2d8;" horiz-adv-x="278" 
d="M-5 625h38q12 -81 110 -81q81 0 102 81h38q-17 -127 -158 -127q-54 0 -90.5 36.5t-39.5 90.5z" />
    <glyph glyph-name="dotaccent" unicode="&#x2d9;" horiz-adv-x="278" 
d="M107 503v102h64v-102h-64z" />
    <glyph glyph-name="ring" unicode="&#x2da;" horiz-adv-x="278" 
d="M139 488q-40 0 -67.5 27.5t-27.5 67.5q0 39 27.5 67t67.5 28t67.5 -28t27.5 -67q0 -40 -27.5 -67.5t-67.5 -27.5zM139 638q-23 0 -39 -16t-16 -39t16 -39t39 -16t39 16t16 39t-16 39t-39 16z" />
    <glyph glyph-name="ogonek" unicode="&#x2db;" horiz-adv-x="278" 
d="M264 -124l14 -29q-87 -55 -142 -55q-39 0 -67 21t-28 62q0 24 9.5 43.5t30.5 34.5t38 25t48.5 19.5t44.5 12.5t43 10v-9q-88 -34 -119 -60q-37 -31 -37 -70q0 -23 18 -35t44 -12q27 0 103 42z" />
    <glyph glyph-name="tilde" unicode="&#x2dc;" horiz-adv-x="278" 
d="M21 506h-38q2 37 26.5 66t61.5 29q25 0 73 -22t69 -22q35 0 44 49h38q-12 -95 -87 -95q-22 0 -72 22q-48 22 -69 22q-38 0 -46 -49z" />
    <glyph glyph-name="hungarumlaut" unicode="&#x2dd;" horiz-adv-x="278" 
d="M196 632l-133 -140h-45l99 140h79zM322 632l-137 -140h-51l111 140h77z" />
    <glyph glyph-name="uni03A9" unicode="&#x3a9;" horiz-adv-x="653" 
d="M178 50v2q-53 35 -87.5 92.5t-34.5 132.5q0 106 78 177.5t194 71.5q118 0 193 -74t75 -174q0 -76 -36 -134.5t-88 -91.5v-2h136v-50h-219v38q60 30 100 88.5t40 142.5q0 80 -54.5 144t-145.5 64t-148.5 -61.5t-57.5 -149.5q0 -79 41 -139.5t99 -88.5v-38h-219v50h134z
" />
    <glyph glyph-name="uni03BC" unicode="&#x3bc;" 
d="M87 -140v532q0 21 -5 27.5t-19 8.5v12h106v-12q-11 -2 -15.5 -9t-4.5 -27v-260q0 -39 24 -64.5t77 -25.5t77 25.5t24 64.5v260q0 21 -5 27.5t-17 8.5v12h104v-12q-11 -2 -15.5 -9t-4.5 -27v-244q0 -79 -39.5 -116.5t-123.5 -37.5q-64 0 -101 21v-155q0 -33 18 -36v-12
h-98v12q18 3 18 36z" />
    <glyph glyph-name="pi" unicode="&#x3c0;" horiz-adv-x="506" 
d="M484 334h-72v-216q0 -76 12 -118h-65q-14 19 -14 111v223h-162q-4 -81 -23 -185.5t-41 -148.5h-66q23 55 42 155.5t22 178.5q-71 0 -101 -11l-10 41q36 21 127 21h357z" />
    <glyph glyph-name="endash" unicode="&#x2013;" 
d="M500 244v-48h-500v48h500z" />
    <glyph glyph-name="emdash" unicode="&#x2014;" horiz-adv-x="1000" 
d="M1000 244v-48h-1000v48h1000z" />
    <glyph glyph-name="quoteleft" unicode="&#x2018;" horiz-adv-x="278" 
d="M201 532v-28q-76 -29 -76 -103q7 3 15 3q22 0 38 -10t16 -31q0 -22 -13.5 -37.5t-34.5 -15.5q-32 0 -50.5 18.5t-18.5 51.5q0 53 36.5 99t87.5 53z" />
    <glyph glyph-name="quoteright" unicode="&#x2019;" horiz-adv-x="278" 
d="M77 310v28q76 29 76 103q-7 -3 -15 -3q-22 0 -38 10t-16 31q0 22 13.5 37.5t34.5 15.5q32 0 50.5 -18.5t18.5 -51.5q0 -53 -36.5 -99t-87.5 -53z" />
    <glyph glyph-name="quotesinglbase" unicode="&#x201a;" horiz-adv-x="278" 
d="M77 -130v28q76 29 76 103q-4 -2 -7 -2q-3 -1 -8 -1q-22 0 -38 10t-16 31q0 22 13.5 37.5t34.5 15.5q32 0 50.5 -18.5t18.5 -51.5q0 -53 -36.5 -99t-87.5 -53z" />
    <glyph glyph-name="quotedblleft" unicode="&#x201c;" 
d="M200 532v-28q-76 -29 -76 -103q8 3 15 3q22 0 38 -10t16 -31q0 -22 -13.5 -37.5t-34.5 -15.5q-32 0 -50.5 18.5t-18.5 51.5q0 53 36.5 99t87.5 53zM423 532v-28q-76 -29 -76 -103q7 3 15 3q22 0 38 -10t16 -31q0 -22 -13.5 -37.5t-34.5 -15.5q-32 0 -50.5 18.5
t-18.5 51.5q0 53 36.5 99t87.5 53z" />
    <glyph glyph-name="quotedblright" unicode="&#x201d;" 
d="M300 310v28q76 29 76 103q-8 -3 -15 -3q-22 0 -38 10t-16 31q0 22 13.5 37.5t34.5 15.5q32 0 50.5 -18.5t18.5 -51.5q0 -53 -36.5 -99t-87.5 -53zM77 310v28q76 29 76 103q-7 -3 -15 -3q-22 0 -38 10t-16 31q0 22 13.5 37.5t34.5 15.5q32 0 50.5 -18.5t18.5 -51.5
q0 -53 -36.5 -99t-87.5 -53z" />
    <glyph glyph-name="quotedblbase" unicode="&#x201e;" 
d="M300 -130v28q76 29 76 103q-4 -2 -7 -2q-3 -1 -8 -1q-22 0 -38 10t-16 31q0 22 13.5 37.5t34.5 15.5q32 0 50.5 -18.5t18.5 -51.5q0 -53 -36.5 -99t-87.5 -53zM77 -130v28q76 29 76 103q-4 -2 -7 -2q-3 -1 -8 -1q-22 0 -38 10t-16 31q0 22 13.5 37.5t34.5 15.5
q32 0 50.5 -18.5t18.5 -51.5q0 -53 -36.5 -99t-87.5 -53z" />
    <glyph glyph-name="dagger" unicode="&#x2020;" 
d="M424 386v-82l-158 26q1 -14 12.5 -68t11.5 -66q0 -10 -10.5 -103.5t-13.5 -190.5h-32q-3 97 -13.5 190.5t-10.5 103.5q0 12 11.5 66t12.5 68l-158 -26v82l158 -26l-26 166h84l-26 -166z" />
    <glyph glyph-name="daggerdbl" unicode="&#x2021;" 
d="M424 386v-82l-158 26l20 -116l-20 -116l158 26v-82l-158 26l26 -166h-84l26 166l-158 -26v82l158 -26l-20 116l20 116l-158 -26v82l158 -26l-26 166h84l-26 -166z" />
    <glyph glyph-name="bullet" unicode="&#x2022;" 
d="M118 263q0 55 38.5 93t93.5 38t93 -38t38 -93t-38 -93.5t-93 -38.5t-93.5 38.5t-38.5 93.5z" />
    <glyph glyph-name="ellipsis" unicode="&#x2026;" horiz-adv-x="1000" 
d="M167 92q21 0 35 -14.5t14 -34.5t-14 -34.5t-35 -14.5t-35 14.5t-14 34.5t14 34.5t35 14.5zM500 92q21 0 35 -14.5t14 -34.5t-14 -34.5t-35 -14.5t-35 14.5t-14 34.5t14 34.5t35 14.5zM833 92q21 0 35 -14.5t14 -34.5t-14 -34.5t-35 -14.5t-35 14.5t-14 34.5t14 34.5
t35 14.5z" />
    <glyph glyph-name="perthousand" unicode="&#x2030;" horiz-adv-x="1000" 
d="M480 234q61 0 105.5 -44t44.5 -106t-44.5 -106t-105.5 -44t-105.5 44t-44.5 106t44.5 106t105.5 44zM480 182q-39 0 -68.5 -29t-29.5 -69t29.5 -69t68.5 -29t68.5 29t29.5 69t-29.5 69t-68.5 29zM834 234q61 0 105.5 -44t44.5 -106t-44.5 -106t-105.5 -44t-105.5 44
t-44.5 106t44.5 106t105.5 44zM834 182q-39 0 -68.5 -29t-29.5 -69t29.5 -69t68.5 -29t68.5 29t29.5 69t-29.5 69t-68.5 29zM152 586q61 0 105.5 -44t44.5 -106t-44.5 -106t-105.5 -44t-105.5 44t-44.5 106t44.5 106t105.5 44zM152 534q-39 0 -68.5 -29t-29.5 -69t29.5 -69
t68.5 -29t68.5 29t29.5 69t-29.5 69t-68.5 29zM537 586l-393 -652h-49l393 652h49z" />
    <glyph glyph-name="guilsinglleft" unicode="&#x2039;" horiz-adv-x="333" 
d="M262 367l-122 -147l122 -147h-64l-122 147l122 147h64z" />
    <glyph glyph-name="guilsinglright" unicode="&#x203a;" horiz-adv-x="333" 
d="M193 220l-122 147h64l122 -147l-122 -147h-64z" />
    <glyph glyph-name="fraction" unicode="&#x2044;" horiz-adv-x="167" 
d="M-98 -6h-69l433 538h68z" />
    <glyph glyph-name="Euro" unicode="&#x20ac;" 
d="M371 233l-18 -47h-174q26 -130 137 -130q46 0 73.5 23t27.5 49q0 15 -6 25l15 6l67 -94l-11 -7q-11 11 -18 8q-1 0 -20 -19.5t-52.5 -36t-75.5 -16.5q-170 0 -211 192h-79l18 47h55q-1 10 -1 30q0 22 1 32h-67l17 47h56q17 87 71 138.5t138 51.5q42 0 72.5 -12.5
t44.5 -25.5l14 -13q3 0 14 11l9 -5l-40 -105l-14 5q2 12 2 16q0 21 -27 44t-75 23q-107 0 -135 -128h234l-18 -47h-222q-1 -10 -1 -32q0 -20 1 -30h198z" />
    <glyph glyph-name="afii61289" unicode="&#x2113;" horiz-adv-x="430" 
d="M377 129l32 -28q-59 -103 -170 -103q-65 0 -101 37t-43 94v8q-6 -4 -49 -36l-21 37q5 4 31 22t38 29v199q0 98 39 142.5t96 44.5q55 0 84 -36.5t29 -89.5q0 -68 -47 -134t-138 -144v-16q1 -52 29 -79.5t68 -27.5q39 0 71.5 24t51.5 57zM157 401v-171q135 128 135 216
q0 84 -63 84q-28 0 -50 -31t-22 -98z" />
    <glyph glyph-name="trademark" unicode="&#x2122;" horiz-adv-x="750" 
d="M192 506v-226q0 -22 5 -27t32 -7v-20h-150v20q28 2 33.5 7t5.5 27v226h-33q-38 0 -49 -47h-18v67h273v-67h-18q-11 47 -48 47h-33zM499 226l-101 212h-2v-140q0 -31 6.5 -41t32.5 -11v-20h-100v20q25 1 31 11t6 41v170q-17 38 -51 38v20h108l102 -210l110 210h91v-20
q-25 -1 -32 -8t-7 -26v-194q0 -22 5 -27t33 -7v-18h-149v20q27 2 32 7t5 27v159h-2l-107 -213h-11z" />
    <glyph glyph-name="Omega" unicode="&#x2126;" horiz-adv-x="653" 
d="M178 50v2q-53 35 -87.5 92.5t-34.5 132.5q0 106 78 177.5t194 71.5q118 0 193 -74t75 -174q0 -76 -36 -134.5t-88 -91.5v-2h136v-50h-219v38q60 30 100 88.5t40 142.5q0 80 -54.5 144t-145.5 64t-148.5 -61.5t-57.5 -149.5q0 -79 41 -139.5t99 -88.5v-38h-219v50h134z
" />
    <glyph glyph-name="estimated" unicode="&#x212e;" horiz-adv-x="649" 
d="M623 255h-484q-4 0 -4 -3v-146q0 -10 6 -17q77 -80 183 -80q116 0 193 90h43q-41 -48 -103.5 -76t-133.5 -28q-123 0 -210.5 78.5t-87.5 189.5t87.5 190t210.5 79q124 0 212 -79t88 -190v-8zM513 274v148q0 8 -7 17q-79 77 -182 77q-105 0 -182 -79q-7 -7 -7 -19v-144
q0 -4 4 -4h371q3 0 3 4z" />
    <glyph glyph-name="partialdiff" unicode="&#x2202;" horiz-adv-x="481" 
d="M87 496l-23 43q63 44 149 44q94 0 159 -76.5t65 -207.5q0 -125 -61.5 -213.5t-169.5 -88.5q-82 0 -127 54.5t-45 119.5q0 82 54 134.5t131 52.5q56 0 96.5 -29t55.5 -56h1q1 10 1 36q0 100 -48.5 162t-117.5 62q-67 0 -120 -37zM212 46h1q59 0 99.5 51t50.5 121
q-11 31 -47.5 61t-84.5 30q-54 0 -92.5 -40t-38.5 -97q0 -53 31.5 -89.5t80.5 -36.5z" />
    <glyph glyph-name="Delta" unicode="&#x2206;" horiz-adv-x="577" 
d="M25 0v42l225 491h79l222 -491v-42h-526zM95 50h382l-130 286q-5 13 -19 43.5t-24.5 56t-15.5 39.5h-4q-3 -7 -53 -124z" />
    <glyph glyph-name="product" unicode="&#x220f;" horiz-adv-x="616" 
d="M595 462h-100v-533h-64v533h-247v-533h-64v533h-100v55h575v-55z" />
    <glyph glyph-name="summation" unicode="&#x2211;" horiz-adv-x="489" 
d="M469 -71h-451v38l235 254l-224 254v42h427v-54h-333v-3l207 -232l-222 -240v-3h361v-56z" />
    <glyph glyph-name="minus" unicode="&#x2212;" horiz-adv-x="600" 
d="M520 189h-440v62h440v-62z" />
    <glyph glyph-name="uni2215" unicode="&#x2215;" horiz-adv-x="167" 
d="M-98 -6h-69l433 538h68z" />
    <glyph glyph-name="uni2219" unicode="&#x2219;" horiz-adv-x="250" 
d="M125 269q21 0 35 -14.5t14 -34.5t-14 -34.5t-35 -14.5t-35 14.5t-14 34.5t14 34.5t35 14.5z" />
    <glyph glyph-name="radical" unicode="&#x221a;" horiz-adv-x="494" 
d="M501 613l-197 -725h-58l-140 342l-65 -24l-13 36l117 46l115 -289q3 -7 8 -23.5t7 -24.5h1q1 7 12 49l163 613h50z" />
    <glyph glyph-name="infinity" unicode="&#x221e;" horiz-adv-x="645" 
d="M602 215v-1q0 -58 -37.5 -94.5t-88.5 -36.5q-37 0 -71.5 23.5t-81.5 75.5q-28 -32 -46 -49.5t-48.5 -33.5t-62.5 -16q-50 0 -87 37t-37 91q0 56 37.5 93t93.5 37q42 0 78 -26t76 -72l13 13q12 14 13.5 15.5t12.5 13t14.5 14t14 11.5t15.5 11t15.5 7.5t18 7.5t18 3.5
t20.5 1.5q54 0 87 -35t33 -91zM172 122h1q11 0 21.5 2.5t21.5 9t19 11.5t19 16l16 16t16.5 17.5t14.5 15.5q-21 25 -29 34.5t-27.5 27.5t-38 25t-39.5 7q-38 0 -60.5 -27.5t-22.5 -66.5q0 -37 24.5 -62.5t63.5 -25.5zM477 304q-20 0 -41.5 -11.5t-32 -21t-33 -33
t-23.5 -24.5q47 -51 74 -71.5t58 -20.5q37 0 59.5 27t22.5 62q0 43 -23.5 68t-60.5 25z" />
    <glyph glyph-name="integral" unicode="&#x222b;" horiz-adv-x="296" 
d="M288 621l-11 -41q-16 9 -33 9q-27 0 -44 -18q-29 -32 -29 -132q0 -57 6.5 -183t6.5 -187q0 -100 -36 -148q-28 -41 -84 -41q-36 0 -58 14l11 43q19 -11 41 -11q25 0 39 17q31 34 31 127q0 62 -6 190t-6 186q0 117 46 158q30 29 78 29q26 0 48 -12z" />
    <glyph glyph-name="approxequal" unicode="&#x2248;" horiz-adv-x="490" 
d="M423 332l26 -25q-45 -75 -112 -75q-17 0 -34.5 5t-29 10.5t-38.5 19.5q-52 27 -81 27q-28 0 -47 -15.5t-41 -44.5l-27 24q45 76 120 76q12 0 23 -2t22 -6.5t17.5 -7.5t18.5 -9.5t15 -8.5q5 -3 17 -9l17 -8.5t14 -6t17 -4.5t18 -1q46 0 85 61zM423 190l26 -25
q-46 -75 -112 -75q-17 0 -36 5.5t-27.5 10t-38.5 19.5q-50 27 -81 27q-46 0 -88 -61l-27 25q45 76 120 76q12 0 23 -2t22.5 -6.5t17.5 -7t18 -9.5t15 -8q3 -2 11.5 -6.5t11.5 -6t10.5 -5t12 -5t11 -3.5t13 -2.5t13.5 -0.5q47 0 85 60z" />
    <glyph glyph-name="notequal" unicode="&#x2260;" horiz-adv-x="490" 
d="M347 394l-39 -83h138v-39h-156l-58 -122h214v-40h-232l-47 -101l-33 16l40 85h-131v40h150l57 122h-207v39h225l46 99z" />
    <glyph glyph-name="lessequal" unicode="&#x2264;" horiz-adv-x="490" 
d="M444 65l-396 182v42l396 182v-46l-351 -156v-1l351 -157v-46zM446 -7h-403v39h403v-39z" />
    <glyph glyph-name="greaterequal" unicode="&#x2265;" horiz-adv-x="490" 
d="M48 471l396 -182v-42l-395 -182v46l349 156v2l-350 156v46zM444 -7h-400v39h400v-39z" />
    <glyph glyph-name="lozenge" unicode="&#x25ca;" horiz-adv-x="495" 
d="M449 258l-177 -297h-51l-175 297l176 298h51zM390 257l-127 216q-11 20 -16 35h-2q-4 -11 -16 -35l-125 -213l127 -218q13 -26 16 -34h2q5 15 15 33z" />
    <glyph glyph-name="Brevesmall" unicode="&#xf6f4;" horiz-adv-x="278" 
d="M-5 625h38q12 -81 110 -81q81 0 102 81h38q-17 -127 -158 -127q-54 0 -90.5 36.5t-39.5 90.5z" />
    <glyph glyph-name="Caronsmall" unicode="&#xf6f5;" horiz-adv-x="278" 
d="M105 492l-112 140h64l82 -102l82 102h65l-114 -140h-67z" />
    <glyph glyph-name="Circumflexsmall" unicode="&#xf6f6;" horiz-adv-x="278" 
d="M-7 492l112 140h67l114 -140h-65l-82 102l-82 -102h-64z" />
    <glyph glyph-name="Dotaccentsmall" unicode="&#xf6f7;" horiz-adv-x="278" 
d="M107 503v102h64v-102h-64z" />
    <glyph glyph-name="Hungarumlautsmall" unicode="&#xf6f8;" horiz-adv-x="278" 
d="M196 632l-133 -140h-45l99 140h79zM322 632l-137 -140h-51l111 140h77z" />
    <glyph glyph-name="Lslashsmall" unicode="&#xf6f9;" horiz-adv-x="389" 
d="M147 214v-162h192q24 0 28 16h12v-86h-12q-2 11 -7.5 14.5t-20.5 3.5h-272v12q18 3 18 36v144l-45 -16v52l45 16v148q0 33 -18 36v12h98v-12q-18 -3 -18 -36v-126l105 38v-52z" />
    <glyph glyph-name="OEsmall" unicode="&#xf6fa;" horiz-adv-x="722" 
d="M237 440h367q28 0 32 18h12v-90h-12q-4 24 -28 24h-184v-144h119q24 0 28 26h12v-98h-12q-4 24 -28 24h-119v-152h193q24 0 28 26h12v-92h-12q-2 10 -9.5 14t-28.5 4h-358q-89 0 -135.5 46t-46.5 154q0 122 38.5 181t131.5 59zM362 133v174q0 53 -17.5 68t-80.5 15
q-73 0 -104 -35.5t-31 -145.5q0 -82 28 -122t105 -40q60 0 80 17t20 69z" />
    <glyph glyph-name="Ogoneksmall" unicode="&#xf6fb;" horiz-adv-x="278" 
d="M264 -124l14 -29q-87 -55 -142 -55q-39 0 -67 21t-28 62q0 24 9.5 43.5t30.5 34.5t38 25t48.5 19.5t44.5 12.5t43 10v-9q-88 -34 -119 -60q-37 -31 -37 -70q0 -23 18 -35t44 -12q27 0 103 42z" />
    <glyph glyph-name="Ringsmall" unicode="&#xf6fc;" horiz-adv-x="278" 
d="M139 488q-40 0 -67.5 27.5t-27.5 67.5q0 39 27.5 67t67.5 28t67.5 -28t27.5 -67q0 -40 -27.5 -67.5t-67.5 -27.5zM139 638q-23 0 -39 -16t-16 -39t16 -39t39 -16t39 16t16 39t-16 39t-39 16z" />
    <glyph glyph-name="Scaronsmall" unicode="&#xf6fd;" horiz-adv-x="444" 
d="M52 28l43 90l11 -5q0 -1 -0.5 -3t-1 -3.5l-1 -3t-0.5 -2.5q0 -19 35.5 -39t78.5 -20q41 0 73 22t32 68q0 31 -26.5 47.5t-64 24t-75.5 18t-64.5 38.5t-26.5 75q0 49 42 80t112 31q40 0 86 -12q6 -2 15.5 -5.5t15.5 -6t10 -2.5q6 0 19 9l8 -5l-43 -88l-9 4q1 2 1 11
q0 21 -37.5 34t-71.5 13q-38 0 -64 -19t-26 -45t19 -41.5t47.5 -21t62 -14.5t62 -19.5t47.5 -37.5t19 -68q0 -65 -47.5 -101.5t-114.5 -36.5q-50 0 -96 20q-10 4 -20 9.5t-15.5 8t-7.5 2.5q-7 0 -15 -11zM188 492l-112 140h64l82 -102l82 102h65l-114 -140h-67z" />
    <glyph glyph-name="Tildesmall" unicode="&#xf6fe;" horiz-adv-x="278" 
d="M21 506h-38q2 37 26.5 66t61.5 29q25 0 73 -22t69 -22q35 0 44 49h38q-12 -95 -87 -95q-22 0 -72 22q-48 22 -69 22q-38 0 -46 -49z" />
    <glyph glyph-name="Zcaronsmall" unicode="&#xf6ff;" horiz-adv-x="444" 
d="M65 10l227 382h-184q-24 0 -28 -24h-12v90h12q2 -11 7.5 -14.5t20.5 -3.5h271v-14l-217 -374h172q24 0 28 24h12v-94h-12q-4 18 -37 18h-260v10zM188 492l-112 140h64l82 -102l82 102h65l-114 -140h-67z" />
    <glyph glyph-name="exclamsmall" unicode="&#xf721;" horiz-adv-x="278" 
d="M164 148h-56v12q13 4 13 23q0 8 -2 34l-21 240q-4 51 -19 57v12h110v-12q-11 -4 -14 -16t-5 -41l-17 -240q-2 -26 -2 -34q0 -19 13 -23v-12zM140 92q21 0 35 -14.5t14 -34.5t-14 -34.5t-35 -14.5t-35 14.5t-14 34.5t14 34.5t35 14.5z" />
    <glyph glyph-name="ampersandsmall" unicode="&#xf726;" horiz-adv-x="556" 
d="M481 88v-94q-80 6 -117 81q-49 -81 -136 -81q-60 0 -106.5 44t-46.5 111q0 118 115 155q-79 33 -79 107q0 54 39.5 87.5t95.5 33.5q63 0 100 -34t37 -88q0 -37 -21.5 -67t-58.5 -39v-2q49 -21 72 -75q10 30 32.5 61t47.5 47q10 6 16 22h10v-124h-7q-8 10 -13 10
q-14 0 -35 -35.5t-21 -56.5q0 -28 20 -54.5t36 -26.5q5 0 8 18h12zM331 160q0 45 -25.5 74.5t-65.5 29.5t-65.5 -29.5t-25.5 -74.5t25.5 -74.5t65.5 -29.5t65.5 29.5t25.5 74.5zM321 406q0 26 -21 45t-54 19q-29 0 -51 -17.5t-22 -46.5q0 -31 22 -50.5t51 -19.5q33 0 54 21
t21 49z" />
    <glyph glyph-name="questionsmall" unicode="&#xf73f;" horiz-adv-x="444" 
d="M127 406l-69 69l7 7q6 -2 8 -2q8 0 27 13t49.5 26t65.5 13q53 0 92.5 -34t39.5 -86q0 -36 -16 -68.5t-35.5 -52.5t-35.5 -45.5t-16 -49.5q0 -28 20 -30v-10h-95v12q12 1 15.5 11.5t3.5 36.5q0 33 44.5 91.5t44.5 93.5q0 69 -74 69q-29 0 -50 -11t-21 -33q0 -11 2 -17z
M216 92q21 0 35 -14.5t14 -34.5t-14 -34.5t-35 -14.5t-35 14.5t-14 34.5t14 34.5t35 14.5z" />
    <glyph glyph-name="Gravesmall" unicode="&#xf760;" horiz-adv-x="278" 
d="M150 492l-137 140h77l111 -140h-51z" />
    <glyph glyph-name="Asmall" unicode="&#xf761;" horiz-adv-x="444" 
d="M121 0h-93v12q20 4 28 33l106 327q1 6 4 15l5 15t2 9q0 11 -12 17v12h126v-12q-8 -3 -8 -18q0 -4 10 -37l105 -334q6 -22 22 -27v-12h-92v12q11 2 11 15q0 2 -6 24l-22 69h-172l-21 -69q-6 -22 -6 -27q0 -10 13 -12v-12zM222 396l-70 -228h139l-67 228h-2z" />
    <glyph glyph-name="Bsmall" unicode="&#xf762;" 
d="M94 48v344q0 21 -5 27.5t-17 8.5v12h180q82 0 123 -30.5t41 -84.5q0 -34 -22 -62.5t-55 -34.5v-2q38 -11 61.5 -37t23.5 -64q0 -63 -44 -94t-114 -31h-192v12q11 2 15.5 9t4.5 27zM156 202v-154h102q102 0 102 76q0 40 -24 59t-78 19h-102zM156 392v-146h98q104 0 104 78
q0 68 -104 68h-98z" />
    <glyph glyph-name="Csmall" unicode="&#xf763;" horiz-adv-x="444" 
d="M395 396l7 -5l-49 -76l-9 3q3 33 -26.5 56.5t-67.5 23.5q-60 0 -98 -47.5t-38 -130.5q0 -87 34.5 -132.5t97.5 -45.5q38 0 67.5 25t29.5 46q0 6 -1 10l9 3l58 -74l-7 -5q-5 4 -13 4q-9 0 -27.5 -14t-48.5 -28.5t-67 -14.5q-89 0 -141.5 56t-52.5 170q0 96 52 161t142 65
q28 0 53 -9t38.5 -19.5t25.5 -19.5t18 -9q2 0 14 7z" />
    <glyph glyph-name="Dsmall" unicode="&#xf764;" 
d="M153 392v-344h71q83 2 119.5 37.5t36.5 135.5q0 90 -34 130.5t-113 40.5h-80zM91 48v344q0 21 -5 27.5t-19 8.5v12h187q93 0 140.5 -58.5t47.5 -159.5q0 -125 -56.5 -173.5t-161.5 -48.5h-155v12q12 2 17 8.5t5 27.5z" />
    <glyph glyph-name="Esmall" unicode="&#xf765;" horiz-adv-x="444" 
d="M98 48v344q0 33 -18 36v12h259q27 0 32 18h12v-90h-12q-4 24 -28 24h-183v-144h118q24 0 28 26h12v-98h-12q-4 24 -28 24h-118v-152h192q24 0 28 26h12v-92h-12q-2 10 -9.5 14t-28.5 4h-262v12q18 3 18 36z" />
    <glyph glyph-name="Fsmall" unicode="&#xf766;" horiz-adv-x="389" 
d="M86 48v344q0 33 -18 36v12h267q11 0 16.5 2t7.5 5.5t4 10.5h12v-90h-12q-4 24 -28 24h-187v-144h116q24 0 28 26h12v-98h-12q-4 24 -28 24h-116v-152q0 -21 5 -27.5t17 -8.5v-12h-102v12q18 3 18 36z" />
    <glyph glyph-name="Gsmall" unicode="&#xf767;" 
d="M352 78v90h-83q-23 0 -27 -25l-2 -1h-10v101h12q5 -23 27 -23h153l2 -2v-11q-9 -2 -11.5 -6t-2.5 -17v-79q0 -9 4 -15.5t4 -9.5q0 -9 -18 -28.5t-59 -38.5t-91 -19q-90 0 -142 65t-52 161t52 161t142 65q42 0 82 -18q9 -3 25.5 -12.5t25.5 -9.5t19 5l8 -5l-51 -83l-9 5
q3 11 3 22q0 17 -32.5 32.5t-66.5 15.5q-63 0 -101.5 -51.5t-38.5 -132.5q0 -72 43 -122t96 -50q63 0 99 36z" />
    <glyph glyph-name="Hsmall" unicode="&#xf768;" 
d="M147 248h206v144q0 33 -18 36v12h98v-12q-18 -3 -18 -36v-344q0 -33 18 -36v-12h-98v12q18 3 18 36v152h-206v-152q0 -33 18 -36v-12h-98v12q18 3 18 36v344q0 33 -18 36v12h98v-12q-18 -3 -18 -36v-144z" />
    <glyph glyph-name="Ismall" unicode="&#xf769;" horiz-adv-x="278" 
d="M188 0h-98v12q18 3 18 36v344q0 33 -18 36v12h98v-12q-18 -3 -18 -36v-344q0 -33 18 -36v-12z" />
    <glyph glyph-name="Jsmall" unicode="&#xf76a;" horiz-adv-x="333" 
d="M182 114v278q0 21 -5 27.5t-17 8.5v12h102v-12q-18 -3 -18 -36v-268q0 -130 -119 -130q-38 0 -60 12q-32 16 -41 16q-11 0 -16 -4l-8 3v2l36 84h2l8 -5v-8q0 -16 22.5 -34t51.5 -18q33 0 47.5 17t14.5 55z" />
    <glyph glyph-name="Ksmall" unicode="&#xf76b;" horiz-adv-x="444" 
d="M85 48v344q0 33 -19 36v12h102v-12q-11 -2 -16 -9t-5 -27v-158l136 152q23 27 23 31q0 9 -14 11v12h120v-14q-18 2 -32 -14l-134 -150l138 -219q14 -22 25 -27q6 -3 16 -4v-12h-112v12q13 2 13 12q0 8 -19 35l-104 159l-56 -62v-108q0 -20 4.5 -27t15.5 -9v-12h-101v12
q19 3 19 36z" />
    <glyph glyph-name="Lsmall" unicode="&#xf76c;" horiz-adv-x="389" 
d="M85 48v344q0 33 -18 36v12h98v-12q-18 -3 -18 -36v-340h192q24 0 28 16h12v-86h-12q-2 11 -7.5 14.5t-20.5 3.5h-272v12q18 3 18 36z" />
    <glyph glyph-name="Msmall" unicode="&#xf76d;" horiz-adv-x="611" 
d="M74 440h137v-12q-14 -9 -15 -16q0 -8 9 -31l101 -267h2l98 265q10 27 10 33q0 15 -13 16v12h132v-12q-20 -4 -20 -36v-344q0 -21 5 -27.5t17 -8.5v-12h-97v12q13 2 18 8.5t5 27.5v340h-2l-145 -388h-21l-146 388h-2v-340q0 -20 5 -27t16 -9v-12h-92v12q19 3 19 36v344
q0 32 -21 36v12z" />
    <glyph glyph-name="Nsmall" unicode="&#xf76e;" 
d="M163 0h-99v12q13 2 18 8.5t5 27.5v344q0 33 -18 36v12h122v-12q-16 -2 -16 -14q0 -4 10 -21l169 -275h2v274q0 33 -19 36v12h93v-12q-18 -3 -18 -36v-344q0 -20 4.5 -27t15.5 -9v-12h-97v12q14 0 14 8t-15 32l-189 306h-2v-310q0 -20 4.5 -27t15.5 -9v-12z" />
    <glyph glyph-name="Osmall" unicode="&#xf76f;" 
d="M250 -6q-90 0 -142 65t-52 161t52 161t142 65t142 -65t52 -161t-52 -161t-142 -65zM250 42q68 0 102 52.5t34 125.5t-34 125.5t-102 52.5t-102 -52.5t-34 -125.5t34 -125.5t102 -52.5z" />
    <glyph glyph-name="Psmall" unicode="&#xf770;" horiz-adv-x="444" 
d="M96 48v344q0 21 -5 27.5t-19 8.5v12h189q66 0 100 -36.5t34 -89.5q0 -58 -42 -91t-108 -33h-87v-142q0 -21 5 -27.5t17 -8.5v-12h-100v12q16 4 16 36zM158 392v-154h73q54 0 80 21.5t26 56.5q0 36 -21.5 56t-60.5 20h-97z" />
    <glyph glyph-name="Qsmall" unicode="&#xf771;" 
d="M419 -26l-69 -57l-7 10q7 12 7 16t-7.5 14.5t-21.5 27.5t-15 18q-24 -9 -56 -9q-90 0 -142 65t-52 161t52 161t142 65t142 -65t52 -161q0 -63 -23.5 -114.5t-66.5 -79.5q4 -5 13 -18.5t17.5 -21.5t16.5 -8q7 0 14 4zM386 220q0 73 -34 125.5t-102 52.5t-102 -52.5
t-34 -125.5t34 -125.5t102 -52.5q9 0 25 2q-11 16 -24.5 29t-21 19t-7.5 8q0 5 11 5q32 0 87 -42q66 45 66 157z" />
    <glyph glyph-name="Rsmall" unicode="&#xf772;" 
d="M157 392v-150h96q104 0 104 80q0 70 -104 70h-96zM95 48v344q0 33 -18 36v12h186q70 0 111 -33.5t41 -90.5q0 -43 -26 -75t-67 -38l87 -164q14 -27 34 -27v-12h-112v12q18 2 18 12q0 6 -10 26l-75 140h-107v-142q0 -21 5 -27.5t17 -8.5v-12h-102v12q18 3 18 36z" />
    <glyph glyph-name="Ssmall" unicode="&#xf773;" horiz-adv-x="444" 
d="M52 28l43 90l11 -5q0 -1 -0.5 -3t-1 -3.5l-1 -3t-0.5 -2.5q0 -19 35.5 -39t78.5 -20q41 0 73 22t32 68q0 31 -26.5 47.5t-64 24t-75.5 18t-64.5 38.5t-26.5 75q0 49 42 80t112 31q40 0 86 -12q6 -2 15.5 -5.5t15.5 -6t10 -2.5q6 0 19 9l8 -5l-43 -88l-9 4q1 2 1 11
q0 21 -37.5 34t-71.5 13q-38 0 -64 -19t-26 -45t19 -41.5t47.5 -21t62 -14.5t62 -19.5t47.5 -37.5t19 -68q0 -65 -47.5 -101.5t-114.5 -36.5q-50 0 -96 20q-10 4 -20 9.5t-15.5 8t-7.5 2.5q-7 0 -15 -11z" />
    <glyph glyph-name="Tsmall" unicode="&#xf774;" horiz-adv-x="389" 
d="M225 392v-344q0 -20 4.5 -27t15.5 -9v-12h-100v12q18 3 18 36v344h-94q-24 0 -28 -24h-12v90h12q2 -10 7.5 -14t20.5 -4h250q15 0 20.5 4t7.5 14h12v-90h-12q-4 24 -28 24h-94z" />
    <glyph glyph-name="Usmall" unicode="&#xf775;" 
d="M63 440h106v-12q-11 -2 -15.5 -9t-4.5 -27v-260q0 -39 24 -64.5t77 -25.5t77 25.5t24 64.5v260q0 21 -5 27.5t-17 8.5v12h104v-12q-11 -2 -15.5 -9t-4.5 -27v-244q0 -79 -39.5 -116.5t-123.5 -37.5t-123.5 37.5t-39.5 116.5v244q0 21 -5 27.5t-19 8.5v12z" />
    <glyph glyph-name="Vsmall" unicode="&#xf776;" horiz-adv-x="444" 
d="M301 440h108v-12q-17 0 -23.5 -7t-11.5 -25l-99 -341q-7 -23 -7 -28q0 -10 11 -15v-12h-112v13q7 2 7 12q0 2 -9 32l-101 321q-1 3 -3 10.5t-3 10t-2.5 7.5t-3 7t-4 5.5t-5 5t-6 2.5t-7.5 2v12h100v-12q-14 -4 -14 -16q0 -1 8 -29l99 -317h2l89 308q7 22 7 34
q0 17 -20 20v12z" />
    <glyph glyph-name="Wsmall" unicode="&#xf777;" horiz-adv-x="611" 
d="M28 440h102v-12q-19 -1 -19 -13q0 -10 5 -27l76 -284h2l62 271q5 20 5 36q0 13 -15 17v12h109v-12q-16 -1 -16 -16q0 -7 5 -27l72 -281h2l65 277q5 22 5 34q0 13 -18 13v12h100v-12q-25 0 -31 -30l-79 -343q-5 -22 -5 -25q0 -14 11 -18v-12h-98v12q5 0 9 3.5t4 8.5
q0 7 -7 33l-75 289h-2l-65 -293q-5 -20 -5 -27q0 -11 13 -14v-12h-98v9q11 3 11 13q0 5 -8 37l-88 335q-5 19 -11 25.5t-18 8.5v12z" />
    <glyph glyph-name="Xsmall" unicode="&#xf778;" horiz-adv-x="444" 
d="M146 0h-102v12q6 0 11.5 3t11 9.5t7.5 10t8 13.5l5 10l99 164l-105 178q-9 15 -16 20t-21 8v12h130v-12q-28 -1 -28 -14q0 -8 12 -30l60 -102l60 95q16 25 16 34q0 13 -23 17v12h125v-12q-27 0 -42 -26l-102 -173l101 -171q2 -2 7 -11t7.5 -13t8 -9.5t11 -8.5t12.5 -4
v-12h-114v12q15 2 15 11t-13 32l-69 116l-73 -120q-13 -23 -13 -28q0 -7 14 -11v-12z" />
    <glyph glyph-name="Ysmall" unicode="&#xf779;" horiz-adv-x="444" 
d="M189 48v142l-118 205q-15 27 -34 33v12h110v-12q-17 -2 -17 -11q0 -6 11 -26l81 -142l76 135q12 22 12 29q0 14 -17 15v12h104v-12q-13 -4 -17.5 -8.5t-12.5 -17.5l-116 -211v-143q0 -33 18 -36v-12h-98v12q18 3 18 36z" />
    <glyph glyph-name="Zsmall" unicode="&#xf77a;" horiz-adv-x="444" 
d="M65 10l227 382h-184q-24 0 -28 -24h-12v90h12q2 -11 7.5 -14.5t20.5 -3.5h271v-14l-217 -374h172q24 0 28 24h12v-94h-12q-4 18 -37 18h-260v10z" />
    <glyph glyph-name="exclamdownsmall" unicode="&#xf7a1;" horiz-adv-x="278" 
d="M114 372h56v-12q-13 -4 -13 -23q0 -8 2 -34l21 -240q4 -51 19 -57v-12h-110v12q11 4 14 16t5 41l17 240q2 26 2 34q0 19 -13 23v12zM138 428q-21 0 -35 14.5t-14 34.5t14 34.5t35 14.5t35 -14.5t14 -34.5t-14 -34.5t-35 -14.5z" />
    <glyph glyph-name="Dieresissmall" unicode="&#xf7a8;" horiz-adv-x="278" 
d="M29 503v102h64v-102h-64zM185 503v102h64v-102h-64z" />
    <glyph glyph-name="Macronsmall" unicode="&#xf7af;" horiz-adv-x="278" 
d="M-8 529v48h295v-48h-295z" />
    <glyph glyph-name="Acutesmall" unicode="&#xf7b4;" horiz-adv-x="278" 
d="M265 632l-137 -140h-51l111 140h77z" />
    <glyph glyph-name="Cedillasmall" unicode="&#xf7b8;" horiz-adv-x="278" 
d="M23 -188l15 30q37 -14 59 -14q28 0 49.5 10.5t21.5 35.5q0 38 -52 38q-27 0 -42 -7l-15 13l60 82h38l-46 -57l2 -1q15 6 31 6q36 0 59 -20t23 -57t-34 -58t-72 -21q-53 0 -97 20z" />
    <glyph glyph-name="questiondownsmall" unicode="&#xf7bf;" horiz-adv-x="444" 
d="M317 120l69 -69l-7 -7q-6 2 -8 2q-8 0 -27 -13t-49.5 -26t-65.5 -13q-53 0 -92.5 34t-39.5 86q0 36 16 68.5t35.5 52t35.5 45t16 48.5q0 28 -20 30v12h95v-14q-12 -1 -15.5 -11.5t-3.5 -36.5q0 -32 -44.5 -90t-44.5 -93q0 -69 74 -69q29 0 50 11t21 33q0 11 -2 17z
M228 434q-21 0 -35 14.5t-14 34.5t14 34.5t35 14.5t35 -14.5t14 -34.5t-14 -34.5t-35 -14.5z" />
    <glyph glyph-name="Agravesmall" unicode="&#xf7e0;" horiz-adv-x="444" 
d="M121 0h-93v12q20 4 28 33l106 327q1 6 4 15l5 15t2 9q0 11 -12 17v12h126v-12q-8 -3 -8 -18q0 -4 10 -37l105 -334q6 -22 22 -27v-12h-92v12q11 2 11 15q0 2 -6 24l-22 69h-172l-21 -69q-6 -22 -6 -27q0 -10 13 -12v-12zM222 396l-70 -228h139l-67 228h-2zM233 492
l-137 140h77l111 -140h-51z" />
    <glyph glyph-name="Aacutesmall" unicode="&#xf7e1;" horiz-adv-x="444" 
d="M121 0h-93v12q20 4 28 33l106 327q1 6 4 15l5 15t2 9q0 11 -12 17v12h126v-12q-8 -3 -8 -18q0 -4 10 -37l105 -334q6 -22 22 -27v-12h-92v12q11 2 11 15q0 2 -6 24l-22 69h-172l-21 -69q-6 -22 -6 -27q0 -10 13 -12v-12zM222 396l-70 -228h139l-67 228h-2zM348 632
l-137 -140h-51l111 140h77z" />
    <glyph glyph-name="Acircumflexsmall" unicode="&#xf7e2;" horiz-adv-x="444" 
d="M121 0h-93v12q20 4 28 33l106 327q1 6 4 15l5 15t2 9q0 11 -12 17v12h126v-12q-8 -3 -8 -18q0 -4 10 -37l105 -334q6 -22 22 -27v-12h-92v12q11 2 11 15q0 2 -6 24l-22 69h-172l-21 -69q-6 -22 -6 -27q0 -10 13 -12v-12zM222 396l-70 -228h139l-67 228h-2zM76 492
l112 140h67l114 -140h-65l-82 102l-82 -102h-64z" />
    <glyph glyph-name="Atildesmall" unicode="&#xf7e3;" horiz-adv-x="444" 
d="M121 0h-93v12q20 4 28 33l106 327q1 6 4 15l5 15t2 9q0 11 -12 17v12h126v-12q-8 -3 -8 -18q0 -4 10 -37l105 -334q6 -22 22 -27v-12h-92v12q11 2 11 15q0 2 -6 24l-22 69h-172l-21 -69q-6 -22 -6 -27q0 -10 13 -12v-12zM222 396l-70 -228h139l-67 228h-2zM104 506h-38
q2 37 26.5 66t61.5 29q25 0 73 -22t69 -22q35 0 44 49h38q-12 -95 -87 -95q-22 0 -72 22q-48 22 -69 22q-38 0 -46 -49z" />
    <glyph glyph-name="Adieresissmall" unicode="&#xf7e4;" horiz-adv-x="444" 
d="M121 0h-93v12q20 4 28 33l106 327q1 6 4 15l5 15t2 9q0 11 -12 17v12h126v-12q-8 -3 -8 -18q0 -4 10 -37l105 -334q6 -22 22 -27v-12h-92v12q11 2 11 15q0 2 -6 24l-22 69h-172l-21 -69q-6 -22 -6 -27q0 -10 13 -12v-12zM222 396l-70 -228h139l-67 228h-2zM112 503v102
h64v-102h-64zM268 503v102h64v-102h-64z" />
    <glyph glyph-name="Aringsmall" unicode="&#xf7e5;" horiz-adv-x="444" 
d="M121 0h-93v12q20 4 28 33l106 327q1 6 4 15l5 15t2 9q0 11 -12 17v12h126v-12q-8 -3 -8 -18q0 -4 10 -37l105 -334q6 -22 22 -27v-12h-92v12q11 2 11 15q0 2 -6 24l-22 69h-172l-21 -69q-6 -22 -6 -27q0 -10 13 -12v-12zM222 396l-70 -228h139l-67 228h-2zM222 488
q-40 0 -67.5 27.5t-27.5 67.5q0 39 27.5 67t67.5 28t67.5 -28t27.5 -67q0 -40 -27.5 -67.5t-67.5 -27.5zM222 638q-23 0 -39 -16t-16 -39t16 -39t39 -16t39 16t16 39t-16 39t-39 16z" />
    <glyph glyph-name="AEsmall" unicode="&#xf7e6;" horiz-adv-x="722" 
d="M250 440h354q28 0 32 18h12v-90h-12q-4 24 -28 24h-180v-144h115q24 0 28 26h12v-98h-12q-4 24 -28 24h-115v-152h189q24 0 28 26h12v-92h-12q-2 10 -9.5 14t-28.5 4h-261v12q11 2 15.5 9t4.5 27v108h-167l-56 -102q-15 -24 -15 -32t18 -10v-12h-104v12q9 1 15.5 6
t9.5 10t8.5 17t9.5 18l173 307q18 31 18 40q0 16 -26 18v12zM366 204v164q0 34 -17 34q-14 0 -26 -21l-95 -177h138z" />
    <glyph glyph-name="Ccedillasmall" unicode="&#xf7e7;" horiz-adv-x="444" 
d="M395 396l7 -5l-49 -76l-9 3q3 33 -26.5 56.5t-67.5 23.5q-60 0 -98 -47.5t-38 -130.5q0 -87 34.5 -132.5t97.5 -45.5q38 0 67.5 25t29.5 46q0 6 -1 10l9 3l58 -74l-7 -5q-5 4 -13 4q-9 0 -27.5 -14t-48 -28.5t-66.5 -14.5l-41 -51l2 -1q15 6 31 6q36 0 59 -20t23 -57
t-34 -58t-72 -21q-53 0 -97 20l15 30q37 -14 59 -14q28 0 49.5 10.5t21.5 35.5q0 38 -52 38q-27 0 -42 -7l-15 13l58 79q-74 9 -117 65t-43 158q0 96 52 161t142 65q28 0 53 -9t38.5 -19.5t25.5 -19.5t18 -9q2 0 14 7z" />
    <glyph glyph-name="Egravesmall" unicode="&#xf7e8;" horiz-adv-x="444" 
d="M98 48v344q0 33 -18 36v12h259q27 0 32 18h12v-90h-12q-4 24 -28 24h-183v-144h118q24 0 28 26h12v-98h-12q-4 24 -28 24h-118v-152h192q24 0 28 26h12v-92h-12q-2 10 -9.5 14t-28.5 4h-262v12q18 3 18 36zM233 492l-137 140h77l111 -140h-51z" />
    <glyph glyph-name="Eacutesmall" unicode="&#xf7e9;" horiz-adv-x="444" 
d="M98 48v344q0 33 -18 36v12h259q27 0 32 18h12v-90h-12q-4 24 -28 24h-183v-144h118q24 0 28 26h12v-98h-12q-4 24 -28 24h-118v-152h192q24 0 28 26h12v-92h-12q-2 10 -9.5 14t-28.5 4h-262v12q18 3 18 36zM348 632l-137 -140h-51l111 140h77z" />
    <glyph glyph-name="Ecircumflexsmall" unicode="&#xf7ea;" horiz-adv-x="444" 
d="M98 48v344q0 33 -18 36v12h259q27 0 32 18h12v-90h-12q-4 24 -28 24h-183v-144h118q24 0 28 26h12v-98h-12q-4 24 -28 24h-118v-152h192q24 0 28 26h12v-92h-12q-2 10 -9.5 14t-28.5 4h-262v12q18 3 18 36zM76 492l112 140h67l114 -140h-65l-82 102l-82 -102h-64z" />
    <glyph glyph-name="Edieresissmall" unicode="&#xf7eb;" horiz-adv-x="444" 
d="M98 48v344q0 33 -18 36v12h259q27 0 32 18h12v-90h-12q-4 24 -28 24h-183v-144h118q24 0 28 26h12v-98h-12q-4 24 -28 24h-118v-152h192q24 0 28 26h12v-92h-12q-2 10 -9.5 14t-28.5 4h-262v12q18 3 18 36zM112 503v102h64v-102h-64zM268 503v102h64v-102h-64z" />
    <glyph glyph-name="Igravesmall" unicode="&#xf7ec;" horiz-adv-x="278" 
d="M188 0h-98v12q18 3 18 36v344q0 33 -18 36v12h98v-12q-18 -3 -18 -36v-344q0 -33 18 -36v-12zM150 492l-137 140h77l111 -140h-51z" />
    <glyph glyph-name="Iacutesmall" unicode="&#xf7ed;" horiz-adv-x="278" 
d="M188 0h-98v12q18 3 18 36v344q0 33 -18 36v12h98v-12q-18 -3 -18 -36v-344q0 -33 18 -36v-12zM265 632l-137 -140h-51l111 140h77z" />
    <glyph glyph-name="Icircumflexsmall" unicode="&#xf7ee;" horiz-adv-x="278" 
d="M188 0h-98v12q18 3 18 36v344q0 33 -18 36v12h98v-12q-18 -3 -18 -36v-344q0 -33 18 -36v-12zM-7 492l112 140h67l114 -140h-65l-82 102l-82 -102h-64z" />
    <glyph glyph-name="Idieresissmall" unicode="&#xf7ef;" horiz-adv-x="278" 
d="M188 0h-98v12q18 3 18 36v344q0 33 -18 36v12h98v-12q-18 -3 -18 -36v-344q0 -33 18 -36v-12zM29 503v102h64v-102h-64zM185 503v102h64v-102h-64z" />
    <glyph glyph-name="Ethsmall" unicode="&#xf7f0;" 
d="M249 248v-48h-101v-152h71q83 2 119.5 37.5t36.5 135.5q0 90 -34 130.5t-113 40.5h-80v-144h101zM41 200v48h45v144q0 21 -5 27.5t-19 8.5v12h187q93 0 140.5 -58.5t47.5 -159.5q0 -125 -56.5 -173.5t-161.5 -48.5h-155v12q12 2 17 8.5t5 27.5v152h-45z" />
    <glyph glyph-name="Ntildesmall" unicode="&#xf7f1;" 
d="M163 0h-99v12q13 2 18 8.5t5 27.5v344q0 33 -18 36v12h122v-12q-16 -2 -16 -14q0 -4 10 -21l169 -275h2v274q0 33 -19 36v12h93v-12q-18 -3 -18 -36v-344q0 -20 4.5 -27t15.5 -9v-12h-97v12q14 0 14 8t-15 32l-189 306h-2v-310q0 -20 4.5 -27t15.5 -9v-12zM132 506h-38
q2 37 26.5 66t61.5 29q25 0 73 -22t69 -22q35 0 44 49h38q-12 -95 -87 -95q-22 0 -72 22q-48 22 -69 22q-38 0 -46 -49z" />
    <glyph glyph-name="Ogravesmall" unicode="&#xf7f2;" 
d="M250 -6q-90 0 -142 65t-52 161t52 161t142 65t142 -65t52 -161t-52 -161t-142 -65zM250 42q68 0 102 52.5t34 125.5t-34 125.5t-102 52.5t-102 -52.5t-34 -125.5t34 -125.5t102 -52.5zM261 492l-137 140h77l111 -140h-51z" />
    <glyph glyph-name="Oacutesmall" unicode="&#xf7f3;" 
d="M250 -6q-90 0 -142 65t-52 161t52 161t142 65t142 -65t52 -161t-52 -161t-142 -65zM250 42q68 0 102 52.5t34 125.5t-34 125.5t-102 52.5t-102 -52.5t-34 -125.5t34 -125.5t102 -52.5zM376 632l-137 -140h-51l111 140h77z" />
    <glyph glyph-name="Ocircumflexsmall" unicode="&#xf7f4;" 
d="M250 -6q-90 0 -142 65t-52 161t52 161t142 65t142 -65t52 -161t-52 -161t-142 -65zM250 42q68 0 102 52.5t34 125.5t-34 125.5t-102 52.5t-102 -52.5t-34 -125.5t34 -125.5t102 -52.5zM104 492l112 140h67l114 -140h-65l-82 102l-82 -102h-64z" />
    <glyph glyph-name="Otildesmall" unicode="&#xf7f5;" 
d="M250 -6q-90 0 -142 65t-52 161t52 161t142 65t142 -65t52 -161t-52 -161t-142 -65zM250 42q68 0 102 52.5t34 125.5t-34 125.5t-102 52.5t-102 -52.5t-34 -125.5t34 -125.5t102 -52.5zM132 506h-38q2 37 26.5 66t61.5 29q25 0 73 -22t69 -22q35 0 44 49h38
q-12 -95 -87 -95q-22 0 -72 22q-48 22 -69 22q-38 0 -46 -49z" />
    <glyph glyph-name="Odieresissmall" unicode="&#xf7f6;" 
d="M250 -6q-90 0 -142 65t-52 161t52 161t142 65t142 -65t52 -161t-52 -161t-142 -65zM250 42q68 0 102 52.5t34 125.5t-34 125.5t-102 52.5t-102 -52.5t-34 -125.5t34 -125.5t102 -52.5zM140 503v102h64v-102h-64zM296 503v102h64v-102h-64z" />
    <glyph glyph-name="Oslashsmall" unicode="&#xf7f8;" 
d="M347 351l-158 -293q25 -16 61 -16q68 0 102 52.5t34 125.5q0 83 -39 131zM155 86l159 294q-26 18 -64 18q-68 0 -102 -52.5t-34 -125.5q0 -86 41 -134zM56 -100l73 138q-73 64 -73 182q0 96 52 161t142 65q48 0 88 -20l57 106h49l-71 -133q71 -62 71 -179q0 -96 -52 -161
t-142 -65q-48 0 -85 20l-61 -114h-48z" />
    <glyph glyph-name="Ugravesmall" unicode="&#xf7f9;" 
d="M63 440h106v-12q-11 -2 -15.5 -9t-4.5 -27v-260q0 -39 24 -64.5t77 -25.5t77 25.5t24 64.5v260q0 21 -5 27.5t-17 8.5v12h104v-12q-11 -2 -15.5 -9t-4.5 -27v-244q0 -79 -39.5 -116.5t-123.5 -37.5t-123.5 37.5t-39.5 116.5v244q0 21 -5 27.5t-19 8.5v12zM261 492
l-137 140h77l111 -140h-51z" />
    <glyph glyph-name="Uacutesmall" unicode="&#xf7fa;" 
d="M63 440h106v-12q-11 -2 -15.5 -9t-4.5 -27v-260q0 -39 24 -64.5t77 -25.5t77 25.5t24 64.5v260q0 21 -5 27.5t-17 8.5v12h104v-12q-11 -2 -15.5 -9t-4.5 -27v-244q0 -79 -39.5 -116.5t-123.5 -37.5t-123.5 37.5t-39.5 116.5v244q0 21 -5 27.5t-19 8.5v12zM376 632
l-137 -140h-51l111 140h77z" />
    <glyph glyph-name="Ucircumflexsmall" unicode="&#xf7fb;" 
d="M63 440h106v-12q-11 -2 -15.5 -9t-4.5 -27v-260q0 -39 24 -64.5t77 -25.5t77 25.5t24 64.5v260q0 21 -5 27.5t-17 8.5v12h104v-12q-11 -2 -15.5 -9t-4.5 -27v-244q0 -79 -39.5 -116.5t-123.5 -37.5t-123.5 37.5t-39.5 116.5v244q0 21 -5 27.5t-19 8.5v12zM104 492
l112 140h67l114 -140h-65l-82 102l-82 -102h-64z" />
    <glyph glyph-name="Udieresissmall" unicode="&#xf7fc;" 
d="M63 440h106v-12q-11 -2 -15.5 -9t-4.5 -27v-260q0 -39 24 -64.5t77 -25.5t77 25.5t24 64.5v260q0 21 -5 27.5t-17 8.5v12h104v-12q-11 -2 -15.5 -9t-4.5 -27v-244q0 -79 -39.5 -116.5t-123.5 -37.5t-123.5 37.5t-39.5 116.5v244q0 21 -5 27.5t-19 8.5v12zM140 503v102h64
v-102h-64zM296 503v102h64v-102h-64z" />
    <glyph glyph-name="Yacutesmall" unicode="&#xf7fd;" horiz-adv-x="444" 
d="M189 48v142l-118 205q-15 27 -34 33v12h110v-12q-17 -2 -17 -11q0 -6 11 -26l81 -142l76 135q12 22 12 29q0 14 -17 15v12h104v-12q-13 -4 -17.5 -8.5t-12.5 -17.5l-116 -211v-143q0 -33 18 -36v-12h-98v12q18 3 18 36zM348 632l-137 -140h-51l111 140h77z" />
    <glyph glyph-name="Thornsmall" unicode="&#xf7fe;" horiz-adv-x="444" 
d="M96 48v344q0 21 -5 27.5t-19 8.5v12h102v-12q-16 -4 -16 -36v-36h103q66 0 100 -36.5t34 -89.5q0 -58 -42 -91t-108 -33h-87v-58q0 -32 16 -36v-12h-102v12q14 2 19 8.5t5 27.5zM158 308v-154h73q54 0 80 21.5t26 56.5q0 36 -21.5 56t-60.5 20h-97z" />
    <glyph glyph-name="Ydieresissmall" unicode="&#xf7ff;" horiz-adv-x="444" 
d="M189 48v142l-118 205q-15 27 -34 33v12h110v-12q-17 -2 -17 -11q0 -6 11 -26l81 -142l76 135q12 22 12 29q0 14 -17 15v12h104v-12q-13 -4 -17.5 -8.5t-12.5 -17.5l-116 -211v-143q0 -33 18 -36v-12h-98v12q18 3 18 36zM112 503v102h64v-102h-64zM268 503v102h64v-102
h-64z" />
    <glyph glyph-name="fi" unicode="&#xfb01;" horiz-adv-x="667" 
d="M577 0h-98v12q18 3 18 36v344q0 33 -18 36v12h98v-12q-18 -3 -18 -36v-344q0 -33 18 -36v-12zM86 48v344q0 33 -18 36v12h267q11 0 16.5 2t7.5 5.5t4 10.5h12v-90h-12q-4 24 -28 24h-187v-144h116q24 0 28 26h12v-98h-12q-4 24 -28 24h-116v-152q0 -21 5 -27.5t17 -8.5
v-12h-102v12q18 3 18 36z" />
    <glyph glyph-name="fl" unicode="&#xfb02;" horiz-adv-x="778" 
d="M86 48v344q0 33 -18 36v12h267q11 0 16.5 2t7.5 5.5t4 10.5h12v-90h-12q-4 24 -28 24h-187v-144h116q24 0 28 26h12v-98h-12q-4 24 -28 24h-116v-152q0 -21 5 -27.5t17 -8.5v-12h-102v12q18 3 18 36zM474 48v344q0 33 -18 36v12h98v-12q-18 -3 -18 -36v-340h192
q24 0 28 16h12v-86h-12q-2 11 -7.5 14.5t-20.5 3.5h-272v12q18 3 18 36z" />
    </font>
</defs>
</svg>
