<?xml version="1.0" standalone="no"?>
<!DOCTYPE svg PUBLIC "-//W3C//DTD SVG 1.1//EN" "http://www.w3.org/Graphics/SVG/1.1/DTD/svg11.dtd" >
<svg xmlns="http://www.w3.org/2000/svg" xmlns:xlink="http://www.w3.org/1999/xlink" version="1.1">
<metadata>
Created by FontForge 20170731 at Tue May  1 12:27:01 2007
 By Aleksey,,,
&#60; info@fontfont.de &#62; Copyright Martin Majoor, 1998. Published by FontShop International.  FontFont Release 22
</metadata>
<defs>
<font id="ScalaSans-Light" horiz-adv-x="536" >
  <font-face 
    font-family="Scala Sans Light"
    font-weight="500"
    font-stretch="normal"
    units-per-em="1000"
    panose-1="0 0 0 0 0 0 0 0 0 0"
    ascent="800"
    descent="-200"
    x-height="453"
    cap-height="660"
    bbox="-267 -253 1179 868"
    underline-thickness="20"
    underline-position="-206"
    unicode-range="U+0020-FB02"
  />
<missing-glyph horiz-adv-x="500" 
 />
    <glyph glyph-name=".notdef" horiz-adv-x="500" 
 />
    <glyph glyph-name=".null" horiz-adv-x="0" 
 />
    <glyph glyph-name="nonmarkingreturn" horiz-adv-x="333" 
 />
    <glyph glyph-name="space" unicode=" " horiz-adv-x="250" 
 />
    <glyph glyph-name="exclam" unicode="!" horiz-adv-x="250" 
d="M160 736l-6 -535h-48l-6 535h60zM173 34q0 -20 -13 -33.5t-30 -13.5t-30 13.5t-13 33.5t13 33.5t30 13.5t30 -13.5t13 -33.5z" />
    <glyph glyph-name="quotedbl" unicode="&#x22;" horiz-adv-x="398" 
d="M298 434h-41v226h41v-226zM141 434h-41v226h41v-226z" />
    <glyph glyph-name="numbersign" unicode="#" horiz-adv-x="636" 
d="M582 451l-6 -36h-112l-29 -158h114l-6 -35h-116l-41 -222h-44l41 222h-171l-43 -222h-43l43 222h-115l6 35h116l32 158h-117l6 36h116l40 207h42l-39 -207h171l39 207h44l-39 -207h111zM420 415h-171l-30 -158h171z" />
    <glyph glyph-name="dollar" unicode="$" horiz-adv-x="520" 
d="M455 622l-25 -47q-70 42 -139 46v-267l11 -6q37 -20 57.5 -33.5t45.5 -36t36.5 -50.5t11.5 -63q0 -73 -43 -119t-119 -56v-59h-46v56q-92 1 -184 64l28 45q44 -30 77.5 -44t78.5 -15v282l-17 8.5t-14 7.5q-136 76 -136 174q0 67 44.5 109.5t122.5 50.5v60h46v-58
q85 -1 164 -49zM245 619q-49 -8 -78 -36.5t-29 -72.5q0 -38 22 -65t85 -64v238zM393 157q0 77 -102 137v-254q48 8 75 39t27 78z" />
    <glyph glyph-name="percent" unicode="%" horiz-adv-x="836" 
d="M795 157q0 -70 -48 -119.5t-113 -49.5t-113 49.5t-48 119.5q0 71 47.5 120t113.5 49q65 0 113 -49t48 -120zM719 692l-555 -736h-51l555 736h51zM363 500q0 -71 -47.5 -120t-113.5 -49q-65 0 -113 49t-48 120q0 72 48 121t113 49q66 0 113.5 -49t47.5 -121zM753 157
q0 54 -32.5 92t-86.5 38t-87 -38t-33 -92t33 -91.5t87 -37.5q53 0 86 37.5t33 91.5zM322 500q0 54 -33 92.5t-87 38.5t-86.5 -38.5t-32.5 -92.5t32.5 -92t86.5 -38t87 38t33 92z" />
    <glyph glyph-name="ampersand" unicode="&#x26;" horiz-adv-x="687" 
d="M684 90q-24 -48 -53 -75t-73 -27q-37 0 -63.5 19.5t-53.5 61.5q-49 -48 -97.5 -65t-110.5 -17q-85 0 -136.5 47t-51.5 127q0 51 26 92.5t94 98.5l51 42q-42 57 -43 58q-51 71 -51 128q0 72 50 116t131 44q74 0 120 -37.5t46 -97.5q0 -67 -85 -132l-33 -25l-24 32l32 24
q58 45 58 99q0 40 -32.5 66t-82.5 26q-55 0 -91.5 -31t-36.5 -78q0 -25 12.5 -55.5t23.5 -46.5t33 -46l209 -294q30 45 51 108q19 58 22 95h44q-7 -50 -31 -120q-18 -53 -63 -119q32 -46 51 -61.5t42 -15.5q26 0 44 20t39 60zM422 103l-184 257l-55 -46q-46 -38 -66 -70.5
t-20 -73.5q0 -61 41.5 -100t109.5 -39q100 0 174 72z" />
    <glyph glyph-name="quotesingle" unicode="'" horiz-adv-x="237" 
d="M139 434h-41v226h41v-226z" />
    <glyph glyph-name="parenleft" unicode="(" horiz-adv-x="349" 
d="M317 666q-56 -78 -90.5 -204.5t-34.5 -251.5q0 -127 34.5 -252.5t90.5 -202.5h-42q-138 208 -138 458q0 237 137 453h43z" />
    <glyph glyph-name="parenright" unicode=")" horiz-adv-x="349" 
d="M220 208q0 -237 -137 -453h-43q56 78 90.5 204.5t34.5 251.5q0 127 -34.5 252.5t-90.5 202.5h42q138 -208 138 -458z" />
    <glyph glyph-name="asterisk" unicode="*" horiz-adv-x="486" 
d="M450 480l-135 -41l-12 37l133 52zM268 660l-5 -142h-39l-6 142h50zM385 267l-35 -28l-81 126l27 21zM182 476l-12 -37l-135 41l14 48zM217 365l-80 -126l-36 28l89 119z" />
    <glyph glyph-name="plus" unicode="+" 
d="M491 216h-201v-216h-44v216h-201v44h201v214h44v-214h201v-44z" />
    <glyph glyph-name="comma" unicode="," horiz-adv-x="237" 
d="M160 31q0 -65 -63 -176h-25q15 38 22 62q5 21 12 61l-31 97q18 11 42 11q43 0 43 -55z" />
    <glyph glyph-name="hyphen" unicode="-" horiz-adv-x="262" 
d="M217 201h-163v54h163v-54z" />
    <glyph glyph-name="period" unicode="." horiz-adv-x="237" 
d="M163 32q0 -18 -13 -31t-31 -13t-31 13t-13 31t13 31t31 13t31 -13t13 -31z" />
    <glyph glyph-name="slash" unicode="/" horiz-adv-x="395" 
d="M349 660l-246 -905h-50l246 905h50z" />
    <glyph glyph-name="zero" unicode="0" horiz-adv-x="556" 
d="M518 234q0 -105 -69 -178.5t-165 -73.5t-165.5 73t-69.5 179t69.5 179.5t165.5 73.5t165 -73.5t69 -179.5zM466 234q0 87 -51.5 147.5t-130.5 60.5t-131 -60.5t-52 -147.5q0 -86 51.5 -146.5t131.5 -60.5q79 0 130.5 60.5t51.5 146.5z" />
    <glyph glyph-name="one" unicode="1" horiz-adv-x="376" 
d="M227 0h-48v433h-113v45h161v-478z" />
    <glyph glyph-name="two" unicode="2" horiz-adv-x="480" 
d="M423 0h-374v24l228 207q54 49 54 110q0 43 -28 71.5t-74 28.5q-29 0 -56.5 -14.5t-42 -28.5t-40.5 -43l-31 24q32 38 51 56.5t52.5 34t74.5 15.5q66 0 106 -38t40 -103q0 -54 -23.5 -89t-75.5 -79l-152 -131h291v-45z" />
    <glyph glyph-name="three" unicode="3" horiz-adv-x="416" 
d="M350 26q0 -63 -26.5 -110.5t-72 -74t-98.5 -39t-112 -12.5v43q48 0 90.5 9.5t81.5 29.5t62 58t23 89q0 64 -39 100t-113 36h-36v36q75 19 115.5 59t40.5 98q0 41 -22.5 68.5t-62.5 27.5q-26 0 -49 -12t-59 -41l-28 32q72 63 150 63q54 0 88.5 -35t34.5 -95
q0 -55 -30 -101.5t-88 -65.5q61 -4 105.5 -43.5t44.5 -119.5z" />
    <glyph glyph-name="four" unicode="4" horiz-adv-x="512" 
d="M489 0h-116v-210h-44v210h-315v15l336 469h23v-442h116v-42zM329 42v343l-242 -343h242z" />
    <glyph glyph-name="five" unicode="5" horiz-adv-x="399" 
d="M344 21q0 -59 -26 -108t-71 -79q-61 -41 -186 -47v44q50 3 87 12t72 28t53.5 55.5t18.5 89.5q0 88 -43.5 127.5t-132.5 43.5l-36 1v290h243v-44h-196v-202l49 -4q77 -7 122.5 -61t45.5 -146z" />
    <glyph glyph-name="six" unicode="6" horiz-adv-x="530" 
d="M477 206q0 -99 -56.5 -163t-137.5 -64q-91 0 -147 75t-56 210q0 73 18.5 143t54.5 130t97.5 96.5t139.5 36.5q17 0 51 -3v-42q-15 1 -39 1q-53 0 -96.5 -18t-72.5 -46t-50 -67.5t-32 -78t-18 -82.5q56 28 94.5 40t87.5 12q69 0 115.5 -49.5t46.5 -130.5zM425 198
q0 62 -33.5 103t-91.5 41q-67 0 -169 -52q-2 -45 3 -87t20 -85t48.5 -69t82.5 -26q64 0 102 51t38 124z" />
    <glyph glyph-name="seven" unicode="7" horiz-adv-x="438" 
d="M401 452l-144 -376q-19 -49 -52 -110q-43 -82 -100 -154l-38 33q24 29 34 43q68 92 116 221l124 325h-302v44h362v-26z" />
    <glyph glyph-name="eight" unicode="8" horiz-adv-x="485" 
d="M436 143q0 -69 -56 -113.5t-145 -44.5q-83 0 -134.5 43.5t-51.5 113.5q0 84 82 152l78 65l-72 65q-37 33 -49.5 54.5t-12.5 52.5q0 66 48 106.5t125 40.5q73 0 117.5 -36t44.5 -95q0 -64 -59 -115l-75 -66l88 -80q72 -65 72 -143zM358 547q0 41 -32 64t-86 23
q-51 0 -83 -26t-32 -69q0 -48 53 -93l64 -55l65 55q51 43 51 101zM386 150q0 30 -16.5 55.5t-54.5 60.5l-72 69l-74 -62q-68 -56 -68 -123q0 -57 36 -89t101 -32q67 0 107.5 33t40.5 88z" />
    <glyph glyph-name="nine" unicode="9" horiz-adv-x="530" 
d="M470 202q0 -73 -18.5 -143t-54.5 -130t-97.5 -96.5t-139.5 -36.5q-16 0 -51 3v42q15 -1 39 -1q53 0 96.5 18t72.5 46t50 67.5t32 78t18 82.5q-56 -28 -94.5 -40t-87.5 -12q-69 0 -115.5 49.5t-46.5 130.5q0 99 56.5 163t137.5 64q91 0 147 -75t56 -210zM419 176
q2 45 -3 87t-20 85t-48.5 69t-82.5 26q-64 0 -102 -51t-38 -124q0 -62 33.5 -103t91.5 -41q67 0 169 52z" />
    <glyph glyph-name="colon" unicode=":" horiz-adv-x="237" 
d="M163 422q0 -18 -13 -31t-31 -13t-31 13t-13 31t13 31t31 13t31 -13t13 -31zM163 32q0 -18 -13 -31t-31 -13t-31 13t-13 31t13 31t31 13t31 -13t13 -31z" />
    <glyph glyph-name="semicolon" unicode=";" horiz-adv-x="237" 
d="M163 422q0 -18 -13 -31t-31 -13t-31 13t-13 31t13 31t31 13t31 -13t13 -31zM160 31q0 -65 -63 -176h-25q15 38 22 62q5 21 12 61l-31 97q18 11 42 11q43 0 43 -55z" />
    <glyph glyph-name="less" unicode="&#x3c;" 
d="M490 8l-444 208v42l444 208v-49l-381 -180l381 -180v-49z" />
    <glyph glyph-name="equal" unicode="=" 
d="M504 291h-472v44h472v-44zM504 129h-472v44h472v-44z" />
    <glyph glyph-name="greater" unicode="&#x3e;" 
d="M490 216l-444 -208v49l381 180l-381 180v49l444 -208v-42z" />
    <glyph glyph-name="question" unicode="?" horiz-adv-x="404" 
d="M346 449q0 -61 -30 -102.5t-88 -41.5h-65v-110h-48v157h148q31 50 31 94q0 91 -54.5 157.5t-145.5 82.5l18 49q106 -23 170 -99.5t64 -186.5zM182 35q0 -21 -13 -34t-29 -13q-17 0 -30 13t-13 34q0 20 13 33t30 13t29.5 -13t12.5 -33z" />
    <glyph glyph-name="at" unicode="@" horiz-adv-x="986" 
d="M894 266q0 -126 -68.5 -198.5t-177.5 -72.5q-119 0 -93 142l18 102q-124 -237 -226 -237q-53 0 -53 140q0 142 65.5 236.5t156.5 94.5q59 0 136 -24l-51 -327q-7 -41 4.5 -61.5t49.5 -20.5q86 0 137 67t51 153q0 140 -94 237.5t-233 97.5q-161 0 -264.5 -106.5
t-103.5 -268.5q0 -150 96 -245t245 -95q82 0 146 28l14 -39q-5 -3 -12.5 -6.5t-9.5 -4.5q-60 -23 -140 -23q-170 0 -280.5 106.5t-110.5 275.5q0 186 118.5 304t298.5 118q164 0 272.5 -104.5t108.5 -268.5zM598 410q-56 19 -84 19q-73 0 -120.5 -86.5t-47.5 -203.5
q0 -85 30 -85q25 0 73.5 60t88.5 132t48 108z" />
    <glyph glyph-name="A" unicode="A" horiz-adv-x="581" 
d="M561 0h-59l-68 203h-287l-68 -203h-59l237 679h68zM417 254l-126 370l-127 -370h253z" />
    <glyph glyph-name="B" unicode="B" horiz-adv-x="577" 
d="M512 170q0 -77 -46 -123.5t-120 -46.5h-230v660h200q76 0 123.5 -39.5t47.5 -115.5q0 -59 -32.5 -107.5t-96.5 -56.5q85 -6 119.5 -51t34.5 -120zM427 497q0 64 -32.5 90.5t-97.5 26.5h-127v-248h121q64 0 100 33.5t36 97.5zM452 176q0 66 -41 102t-114 36h-127v-268h127
q76 0 115.5 28.5t39.5 101.5z" />
    <glyph glyph-name="C" unicode="C" horiz-adv-x="591" 
d="M557 616l-27 -42q-72 48 -158 48q-112 0 -183.5 -81t-71.5 -203q0 -134 74 -217.5t197 -83.5q70 0 150 35l18 -47q-81 -38 -173 -38q-143 0 -234.5 96.5t-91.5 249.5q0 146 91 242.5t227 96.5q102 0 182 -56z" />
    <glyph glyph-name="D" unicode="D" horiz-adv-x="697" 
d="M638 343q0 -149 -86.5 -246t-230.5 -97h-205v660h206q139 0 227.5 -87.5t88.5 -229.5zM578 344q0 119 -75 193.5t-194 74.5h-139v-564h139q128 0 198.5 81t70.5 215z" />
    <glyph glyph-name="E" unicode="E" horiz-adv-x="525" 
d="M468 0h-352v660h343v-48h-289v-251h239v-48h-239v-265h298v-48z" />
    <glyph glyph-name="F" unicode="F" horiz-adv-x="508" 
d="M459 612h-289v-257h239v-48h-239v-307h-54v660h343v-48z" />
    <glyph glyph-name="G" unicode="G" horiz-adv-x="694" 
d="M595 22q-93 -35 -205 -35q-142 0 -237.5 98.5t-95.5 245.5t95.5 243.5t239.5 96.5q109 0 200 -44l-21 -46q-83 40 -171 40q-125 0 -204 -79.5t-79 -204.5q0 -130 81 -215t210 -85q44 0 133 23v221h54v-259z" />
    <glyph glyph-name="H" unicode="H" horiz-adv-x="757" 
d="M641 0h-54v316h-417v-316h-54v660h54v-296h417v296h54v-660z" />
    <glyph glyph-name="I" unicode="I" horiz-adv-x="286" 
d="M170 0h-54v660h54v-660z" />
    <glyph glyph-name="J" unicode="J" horiz-adv-x="286" 
d="M170 -24q-11 -41 -20.5 -63.5t-28.5 -53.5q-25 -43 -70 -87l-33 30q52 60 67 91q31 61 31 159v608h54v-684z" />
    <glyph glyph-name="K" unicode="K" horiz-adv-x="557" 
d="M528 0h-69l-277 333l270 327h63l-268 -321zM170 0h-54v660h54v-660z" />
    <glyph glyph-name="L" unicode="L" horiz-adv-x="481" 
d="M465 0h-349v660h54v-612h295v-48z" />
    <glyph glyph-name="M" unicode="M" horiz-adv-x="864" 
d="M748 0h-54v613l-244 -613h-55l-232 613v-613h-49v660h91l223 -601l231 601h89v-660z" />
    <glyph glyph-name="N" unicode="N" horiz-adv-x="745" 
d="M629 -6h-68l-391 599v-593h-54v660h80l379 -587v587h54v-666z" />
    <glyph glyph-name="O" unicode="O" horiz-adv-x="749" 
d="M692 330q0 -150 -90 -246.5t-227 -96.5q-138 0 -228 96.5t-90 246.5q0 149 90 245.5t228 96.5t227.5 -96t89.5 -246zM632 330q0 119 -75.5 205.5t-181.5 86.5q-107 0 -182.5 -86.5t-75.5 -205.5q0 -120 75.5 -206.5t182.5 -86.5q106 0 181.5 86.5t75.5 206.5z" />
    <glyph glyph-name="P" unicode="P" horiz-adv-x="542" 
d="M507 470q0 -101 -63.5 -159.5t-167.5 -58.5q-15 0 -106 10v-262h-54v660h183q98 0 153 -47t55 -143zM447 465q0 147 -160 147h-117v-304q67 -8 92 -8q85 0 135 40.5t50 124.5z" />
    <glyph glyph-name="Q" unicode="Q" horiz-adv-x="749" 
d="M692 332q0 -132 -75.5 -224t-209.5 -118q45 -60 93 -99t114 -70l-30 -43q-85 46 -136.5 91t-107.5 123q-58 10 -79 18q-89 32 -146.5 122.5t-57.5 200.5q0 148 90 243.5t228 95.5q137 0 227 -95.5t90 -244.5zM632 333q0 118 -75 203.5t-182 85.5t-182.5 -85.5
t-75.5 -203.5q0 -119 75.5 -204.5t182.5 -85.5t182 85.5t75 204.5z" />
    <glyph glyph-name="R" unicode="R" horiz-adv-x="570" 
d="M523 0h-66l-186 294h-101v-294h-54v660h193q88 0 138 -42t50 -130q0 -81 -45.5 -130t-120.5 -56zM437 487q0 73 -39.5 99t-116.5 26h-111v-270h121q146 0 146 145z" />
    <glyph glyph-name="S" unicode="S" horiz-adv-x="520" 
d="M455 622l-25 -47q-77 46 -155 46q-61 0 -99 -30.5t-38 -80.5q0 -44 32 -75.5t132 -86.5q37 -20 57.5 -33.5t45.5 -36t36.5 -50.5t11.5 -63q0 -82 -54.5 -130t-148.5 -48q-96 0 -189 64l28 45q46 -32 82 -45.5t85 -13.5q63 0 100 32.5t37 87.5q0 24 -9 45t-20.5 35.5
t-34 30.5t-37 24.5t-41.5 23t-37 19.5q-136 76 -136 174q0 75 55 118.5t149 43.5q92 0 173 -49z" />
    <glyph glyph-name="T" unicode="T" horiz-adv-x="525" 
d="M509 612h-220v-612h-54v612h-220v48h494v-48z" />
    <glyph glyph-name="U" unicode="U" horiz-adv-x="686" 
d="M587 226q0 -116 -65 -180.5t-178 -64.5q-114 0 -179.5 63.5t-65.5 181.5v434h54v-418q0 -99 46.5 -155t143.5 -56q190 0 190 211v418h54v-434z" />
    <glyph glyph-name="V" unicode="V" horiz-adv-x="569" 
d="M547 660l-246 -677h-30l-250 677h60l208 -569l198 569h60z" />
    <glyph glyph-name="W" unicode="W" horiz-adv-x="850" 
d="M830 660l-241 -673h-31l-129 333l-121 -333h-33l-254 673h60l213 -586l112 306l-113 280h56l81 -213l76 213h46l-97 -268l119 -309l196 577h60z" />
    <glyph glyph-name="X" unicode="X" horiz-adv-x="558" 
d="M531 0h-64l-187 292l-192 -292h-62l222 337l-211 323h65l179 -276l179 276h62l-212 -324z" />
    <glyph glyph-name="Y" unicode="Y" 
d="M510 660l-221 -349v-311h-54v304l-210 356h66l175 -298l182 298h62z" />
    <glyph glyph-name="Z" unicode="Z" horiz-adv-x="581" 
d="M533 0h-484v23l389 589h-389v48h466v-29l-389 -583h407v-48z" />
    <glyph glyph-name="bracketleft" unicode="[" horiz-adv-x="236" 
d="M202 -245h-136v905h136v-45h-88v-815h88v-45z" />
    <glyph glyph-name="backslash" unicode="\" horiz-adv-x="395" 
d="M360 -245h-50l-240 905h50z" />
    <glyph glyph-name="bracketright" unicode="]" horiz-adv-x="236" 
d="M170 -245h-136v45h88v815h-88v45h136v-905z" />
    <glyph glyph-name="asciicircum" unicode="^" horiz-adv-x="508" 
d="M479 1h-42l-173 412l-173 -412h-42l197 472h36z" />
    <glyph glyph-name="underscore" unicode="_" horiz-adv-x="486" 
d="M486 -44h-486v44h486v-44z" />
    <glyph glyph-name="grave" unicode="`" horiz-adv-x="462" 
d="M277 515h-39l-97 145h55z" />
    <glyph glyph-name="a" unicode="a" horiz-adv-x="462" 
d="M410 21l-12 -33q-43 5 -58 18t-19 57q-37 -37 -71.5 -56t-81.5 -19q-49 0 -78 30t-29 82q0 47 25.5 79t70.5 43l162 40v93q0 34 -24 52t-66 18q-40 0 -69 -14.5t-29 -39.5q0 -1 0.5 -4t0.5 -4l-50 -5q-2 5 -2 14q0 46 40.5 69.5t112.5 23.5q133 0 133 -106v-294
q0 -39 44 -44zM319 105v118l-182 -49q-24 -32 -24 -76q0 -31 18 -50.5t52 -19.5q50 0 136 77z" />
    <glyph glyph-name="b" unicode="b" horiz-adv-x="513" 
d="M463 243q0 -117 -68.5 -186.5t-182.5 -69.5q-76 0 -124 22v720h48v-304q37 22 66 31t75 9q81 0 133.5 -58t52.5 -164zM411 240q0 84 -39 131.5t-110 47.5q-62 0 -126 -44v-332q41 -12 80 -12q91 0 143 58.5t52 150.5z" />
    <glyph glyph-name="c" unicode="c" horiz-adv-x="430" 
d="M406 427l-27 -41q-45 35 -109 35q-75 0 -121.5 -55.5t-46.5 -140.5q0 -87 47 -140.5t127 -53.5q56 0 105 36l24 -39q-65 -41 -137 -41q-97 0 -157.5 64.5t-60.5 169.5q0 108 62.5 176t160.5 68q80 0 133 -38z" />
    <glyph glyph-name="d" unicode="d" horiz-adv-x="525" 
d="M437 0h-48v64q-65 -77 -164 -77q-75 0 -125 65.5t-50 166.5q0 109 61.5 177.5t155.5 68.5q76 0 122 -46v310h48v-729zM389 126v187q0 108 -114 108q-76 0 -124.5 -56.5t-48.5 -144.5q0 -76 38.5 -132.5t97.5 -56.5q85 0 151 95z" />
    <glyph glyph-name="e" unicode="e" horiz-adv-x="455" 
d="M411 247h-310q-5 -99 37 -157.5t125 -58.5q60 0 122 43l18 -38q-77 -49 -156 -49q-93 0 -145.5 65.5t-52.5 183.5q0 103 55.5 166t145.5 63q71 0 116 -50.5t45 -134.5v-33zM359 287q0 62 -32 99.5t-82 37.5q-109 0 -141 -137h255z" />
    <glyph glyph-name="f" unicode="f" horiz-adv-x="268" 
d="M371 723l-20 -42q-40 14 -67 14q-129 0 -129 -181v-61h107v-38h-107v-415h-48v415h-76v21l76 20v78q0 96 49.5 150.5t132.5 54.5q46 0 82 -16z" />
    <glyph glyph-name="g" unicode="g" horiz-adv-x="493" 
d="M467 408h-106q34 -54 34 -105q0 -67 -47 -115.5t-111 -48.5q-33 0 -46 3q-74 -64 -74 -90q0 -13 12.5 -18t43.5 -5h169q58 0 83 -23t25 -74q0 -80 -68 -132.5t-163 -52.5q-68 0 -115.5 30.5t-47.5 69.5q0 50 81 140q-72 4 -72 55q0 19 18.5 43.5t72.5 69.5
q-42 18 -66.5 57.5t-24.5 86.5q0 74 47.5 120t121.5 46q36 0 93 -20h73l67 6v-43zM343 302q0 53 -32 89t-82 36q-49 0 -80.5 -36t-31.5 -89q0 -52 32 -88.5t81 -36.5q50 0 81.5 35.5t31.5 89.5zM398 -77q0 33 -11.5 47.5t-44.5 14.5h-167q0 -1 -15.5 -21.5t-20 -27.5
t-14.5 -23.5t-13.5 -28t-3.5 -21.5q0 -35 34.5 -55.5t83.5 -20.5q71 0 121.5 39.5t50.5 96.5z" />
    <glyph glyph-name="h" unicode="h" horiz-adv-x="522" 
d="M435 0h-48v326q0 29 -3.5 47t-19 33t-44.5 15q-40 0 -83 -32t-105 -105v-284h-48v729h48v-392q26 31 41.5 47.5t41.5 38.5t54 32t60 10q53 0 79.5 -28.5t26.5 -91.5v-345z" />
    <glyph glyph-name="i" unicode="i" horiz-adv-x="233" 
d="M152 612q0 -16 -10.5 -27t-24.5 -11t-24.5 11t-10.5 27t10.5 27t24.5 11t24.5 -11t10.5 -27zM141 0h-48v453h48v-453z" />
    <glyph glyph-name="j" unicode="j" horiz-adv-x="231" 
d="M149 614q0 -16 -10.5 -27t-24.5 -11t-24.5 11t-10.5 27t10.5 26.5t24.5 10.5t24.5 -10.5t10.5 -26.5zM139 -80q-40 -99 -96 -167l-30 23q42 61 60 105t18 107v465h48v-533z" />
    <glyph glyph-name="k" unicode="k" horiz-adv-x="420" 
d="M391 0h-61l-181 246l177 207h61l-181 -207zM136 0h-48v729h48v-729z" />
    <glyph glyph-name="l" unicode="l" horiz-adv-x="225" 
d="M137 0h-48v729h48v-729z" />
    <glyph glyph-name="m" unicode="m" horiz-adv-x="833" 
d="M746 0h-48v326q0 29 -3.5 47t-19 33t-44.5 15q-40 0 -83 -32t-105 -105v-284h-48v326q0 29 -3.5 47t-19 33t-44.5 15q-40 0 -83 -32t-105 -105v-284h-48v453h48v-116q26 31 41.5 47.5t41.5 38.5t54 32t60 10q60 0 83 -32.5t23 -95.5q26 31 41.5 47.5t41.5 38.5t54 32
t60 10q53 0 79.5 -28.5t26.5 -91.5v-345z" />
    <glyph glyph-name="n" unicode="n" horiz-adv-x="531" 
d="M443 0h-48v326q0 29 -3.5 47t-19 33t-44.5 15q-40 0 -83 -32t-105 -105v-284h-48v453h48v-116q26 31 41.5 47.5t41.5 38.5t54 32t60 10q53 0 79.5 -28.5t26.5 -91.5v-345z" />
    <glyph glyph-name="o" unicode="o" horiz-adv-x="519" 
d="M469 226q0 -100 -60.5 -169.5t-148.5 -69.5q-90 0 -150 69.5t-60 169.5t60.5 169.5t149.5 69.5q88 0 148.5 -69.5t60.5 -169.5zM417 226q0 80 -45 137.5t-112 57.5t-112.5 -57.5t-45.5 -137.5t45.5 -137.5t112.5 -57.5t112 57.5t45 137.5z" />
    <glyph glyph-name="p" unicode="p" horiz-adv-x="529" 
d="M479 244q0 -110 -62 -183t-155 -73q-81 0 -122 46v-273h-48v692h48v-75q41 52 76 70t87 18q77 0 126.5 -61t49.5 -161zM427 243q0 74 -38 125.5t-98 51.5q-80 0 -151 -94v-197q0 -43 35.5 -69t78.5 -26q78 0 125.5 59.5t47.5 149.5z" />
    <glyph glyph-name="q" unicode="q" horiz-adv-x="506" 
d="M425 -239h-48v276q-24 -17 -40.5 -25.5t-43 -16t-57.5 -7.5q-81 0 -133.5 67t-52.5 165q0 115 63.5 179t173.5 64q81 0 138 -20v-682zM377 86v318q-52 15 -92 15q-85 0 -134 -51.5t-49 -143.5q0 -79 41 -134t108 -55q56 0 126 51z" />
    <glyph glyph-name="r" unicode="r" horiz-adv-x="323" 
d="M313 443l-24 -43q-14 11 -28 11q-27 0 -55 -34t-66 -102v-275h-48v453h48v-116q29 59 65.5 92t66.5 33q26 0 41 -19z" />
    <glyph glyph-name="s" unicode="s" horiz-adv-x="433" 
d="M367 111q0 -59 -46.5 -91.5t-118.5 -32.5q-77 0 -147 37l19 44q73 -41 127 -41q45 0 79.5 21t34.5 57q0 19 -6.5 34t-23.5 28t-28 19.5t-39.5 20t-39.5 18.5q-64 33 -87 59t-23 69q0 54 45 83t123 29q61 0 127 -33l-23 -42q-56 35 -112 35q-45 0 -76.5 -18t-31.5 -53
q0 -17 6.5 -30t22 -24.5t28 -18.5t37.5 -18.5t37 -17.5q71 -37 93.5 -61t22.5 -73z" />
    <glyph glyph-name="t" unicode="t" horiz-adv-x="295" 
d="M270 26q-42 -39 -89 -39q-43 0 -63.5 20t-20.5 72v336h-76v21l76 20v129h48v-132h107v-38h-107v-341q0 -46 43 -46q20 0 60 30z" />
    <glyph glyph-name="u" unicode="u" horiz-adv-x="527" 
d="M439 0h-48v104q-41 -55 -84 -85.5t-103 -30.5q-54 0 -85 33.5t-31 96.5v335h48v-316q0 -43 17.5 -74t59.5 -31q41 0 82 29t96 98v294h48v-453z" />
    <glyph glyph-name="v" unicode="v" horiz-adv-x="433" 
d="M405 453l-166 -466h-49l-161 466h53l135 -410l136 410h52z" />
    <glyph glyph-name="w" unicode="w" horiz-adv-x="654" 
d="M639 453l-151 -466h-43l-113 343l-127 -343h-42l-143 466h52l117 -401l119 336l-22 65h52l130 -407l123 407h48z" />
    <glyph glyph-name="x" unicode="x" horiz-adv-x="388" 
d="M362 0h-57l-114 185l-114 -185h-51l140 224l-140 229h58l110 -185l109 185h53l-138 -223z" />
    <glyph glyph-name="y" unicode="y" horiz-adv-x="391" 
d="M370 453l-172 -478q-27 -74 -63 -136q-24 -41 -58 -86l-36 30q43 50 78 114q23 43 63 152l-161 404h54l129 -338l114 338h52z" />
    <glyph glyph-name="z" unicode="z" horiz-adv-x="446" 
d="M401 0h-362v23l285 386h-272v44h349v-16l-289 -393h289v-44z" />
    <glyph glyph-name="braceleft" unicode="{" horiz-adv-x="395" 
d="M366 -243h-42q-119 0 -119 144v205q0 127 -90 127h-22v33h22q46 0 68 34t22 93v205q0 144 119 144h42v-35h-30q-83 0 -83 -121v-206q0 -91 -61 -119l-27 -12l27 -10q30 -11 45.5 -48t15.5 -72v-207q0 -120 83 -120h30v-35z" />
    <glyph glyph-name="bar" unicode="|" horiz-adv-x="236" 
d="M144 -239h-48v968h48v-968z" />
    <glyph glyph-name="braceright" unicode="}" horiz-adv-x="395" 
d="M306 233h-22q-90 0 -90 -127v-205q0 -144 -119 -144h-42v35h30q83 0 83 120v207q0 35 15.5 72t45.5 48l27 10l-27 12q-61 28 -61 119v206q0 121 -83 121h-30v35h42q119 0 119 -144v-205q0 -59 22 -93t68 -34h22v-33z" />
    <glyph glyph-name="asciitilde" unicode="~" horiz-adv-x="530" 
d="M505 235q-72 -63 -148 -63q-47 0 -108 35.5t-94 35.5q-60 0 -121 -53l-16 28q72 70 142 70q36 0 100 -37t101 -37q66 0 126 52z" />
    <glyph glyph-name="exclamdown" unicode="&#xa1;" horiz-adv-x="250" 
d="M168 463q0 -20 -12.5 -33t-29.5 -13t-30 13t-13 33q0 21 13 34t30 13q16 0 29 -13t13 -34zM156 -238h-60l6 534h47z" />
    <glyph glyph-name="cent" unicode="&#xa2;" horiz-adv-x="430" 
d="M406 427l-27 -41q-26 21 -73 32l-71 -383q17 -4 41 -4q56 0 105 36l24 -39q-65 -41 -137 -41q-22 0 -41 3l-16 -84h-42l18 95q-64 24 -100.5 81.5t-36.5 138.5q0 108 62.5 176t160.5 68l15 84h42l-16 -88q59 -10 92 -34zM264 421q-73 -2 -117.5 -57.5t-44.5 -138.5
q0 -61 25 -107.5t69 -68.5z" />
    <glyph glyph-name="sterling" unicode="&#xa3;" horiz-adv-x="562" 
d="M624 667l-34 -26q-13 24 -30 35.5t-48 11.5q-60 0 -97.5 -51.5t-55.5 -125.5l-90 -361h189l-17 -42h-185l-43 -167q-24 -93 -61 -117q52 10 81 5q15 -2 71.5 -16.5t88.5 -14.5q30 0 48 13t18 37q0 1 -6 43l48 7q10 -48 10 -59q0 -38 -31 -62t-89 -24q-37 0 -109.5 17
t-109.5 17q-19 0 -43 -3t-37 -6t-44 -10t-38 -9l8 51q80 14 104.5 38t43.5 98l41 162h-127l12 30l129 13l94 375q24 97 71.5 151.5t133.5 54.5q43 0 65 -13.5t39 -51.5z" />
    <glyph glyph-name="yen" unicode="&#xa5;" 
d="M511 660l-206 -325h148v-36h-164v-94h164v-36h-164v-169h-54v169h-163v36h163v94h-163v36h146l-193 325h65l177 -299l182 299h62z" />
    <glyph glyph-name="brokenbar" unicode="&#xa6;" horiz-adv-x="236" 
d="M144 -239h-48v438h48v-438zM144 291h-48v438h48v-438z" />
    <glyph glyph-name="section" unicode="&#xa7;" horiz-adv-x="382" 
d="M341 679l-34 -26q-30 41 -82 44q-61 1 -95.5 -46.5t-36.5 -125.5q-3 -78 48 -290q56 -237 54 -292q0 -45 -18 -77l-21 5q9 19 9 36q1 35 -10 85l-64 266q-44 187 -41 285q4 90 56 143t127 51q37 -1 61 -14.5t47 -43.5zM325 -52q-4 -90 -56 -143t-127 -51q-38 2 -62 14.5
t-46 43.5l34 26q29 -41 83 -44q61 -1 95.5 46t36.5 125q3 75 -49 290q-55 235 -53 292q0 44 17 77l22 -5q-9 -18 -9 -36q-2 -38 9 -85l64 -266q44 -186 41 -284z" />
    <glyph glyph-name="dieresis" unicode="&#xa8;" horiz-adv-x="462" 
d="M347 583q0 -17 -11.5 -28.5t-28.5 -11.5q-16 0 -27.5 12t-11.5 28t11.5 28t27.5 12q17 0 28.5 -11.5t11.5 -28.5zM192 583q0 -16 -11.5 -28t-27.5 -12q-17 0 -28.5 11.5t-11.5 28.5t11.5 28.5t28.5 11.5q16 0 27.5 -12t11.5 -28z" />
    <glyph glyph-name="copyright" unicode="&#xa9;" horiz-adv-x="965" 
d="M889 243q0 -170 -121.5 -290.5t-284.5 -120.5q-107 0 -200.5 54t-150 149.5t-56.5 207.5t56 207t150 149t201 54q164 0 285 -120t121 -290zM837 243q0 151 -102.5 258.5t-251.5 107.5q-150 0 -252.5 -107.5t-102.5 -258.5q0 -152 102.5 -259.5t252.5 -107.5t252 107.5
t102 259.5zM644 48q-64 -42 -143 -42q-102 0 -165 63t-63 167q0 106 65.5 172t167.5 66q71 0 129 -38l-28 -39q-44 32 -104 32q-79 0 -128.5 -54t-49.5 -136q0 -84 50.5 -135.5t134.5 -51.5q61 0 110 32z" />
    <glyph glyph-name="ordfeminine" unicode="&#xaa;" horiz-adv-x="394" 
d="M316 341q-34 4 -48 11.5t-20 29.5q-45 -40 -100 -40q-39 0 -62 22.5t-23 61.5q0 35 20 58t55 31l106 25v54q0 37 -53 37q-26 0 -42.5 -8.5t-16.5 -18.5q0 -2 2 -13l-53 -5q-5 14 -5 19q0 71 117 71q104 0 104 -79v-195q0 -17 34 -21zM244 494l-112 -28q-13 -17 -13 -42
q0 -37 39 -37q30 0 86 46v61z" />
    <glyph glyph-name="guillemotleft" unicode="&#xab;" horiz-adv-x="546" 
d="M484 56l-193 170l193 171v-52l-138 -119l138 -119v-51zM275 56l-193 170l193 171v-52l-138 -119l138 -119v-51z" />
    <glyph glyph-name="logicalnot" unicode="&#xac;" horiz-adv-x="250" 
 />
    <glyph glyph-name="registered" unicode="&#xae;" horiz-adv-x="965" 
d="M889 243q0 -170 -121.5 -290.5t-284.5 -120.5q-107 0 -200.5 54t-150 149.5t-56.5 207.5t56 207t150 149t201 54q164 0 285 -120t121 -290zM837 243q0 151 -102.5 258.5t-251.5 107.5q-150 0 -252.5 -107.5t-102.5 -258.5q0 -152 102.5 -259.5t252.5 -107.5t252 107.5
t102 259.5zM661 11h-65l-145 198h-72v-198h-48v462h140q172 0 172 -125q0 -53 -39.5 -92.5t-92.5 -42.5zM591 346q0 83 -132 83h-80v-180h90q122 0 122 97z" />
    <glyph glyph-name="macron" unicode="&#xaf;" horiz-adv-x="392" 
d="M320 564h-245v43h245v-43z" />
    <glyph glyph-name="degree" unicode="&#xb0;" horiz-adv-x="319" 
d="M281 547q0 -50 -35.5 -85.5t-86.5 -35.5q-50 0 -85.5 35.5t-35.5 85.5t35.5 86t85.5 36q51 0 86.5 -36t35.5 -86zM238 547q0 33 -23 56t-56 23q-32 0 -55 -23t-23 -56q0 -32 23 -55t55 -23q33 0 56 23t23 55z" />
    <glyph glyph-name="plusminus" unicode="&#xb1;" 
d="M492 257h-202v-173h-44v173h-201v44h201v173h44v-173h202v-44zM491 0h-446v44h446v-44z" />
    <glyph glyph-name="twosuperior" unicode="&#xb2;" horiz-adv-x="407" 
d="M377 329h-282v29l163 140q34 28 34 65q0 25 -16.5 41t-44.5 16q-7 0 -13.5 -1t-13 -4t-11 -4.5t-11.5 -7t-10 -7t-10.5 -9t-8.5 -9t-9 -10.5l-9 -8l-37 27q26 29 41 43.5t41 26t57 11.5q50 0 81 -28t31 -75q0 -38 -18 -62.5t-55 -55.5l-86 -70h187v-48z" />
    <glyph glyph-name="threesuperior" unicode="&#xb3;" horiz-adv-x="350" 
d="M314 352q0 -60 -36.5 -99.5t-87 -54t-113.5 -14.5v48q79 0 129.5 27.5t50.5 88.5q0 81 -96 81h-35v42q109 26 109 97q0 25 -13.5 40.5t-36.5 15.5q-27 0 -77 -40l-32 36q61 51 119 51q42 0 69 -26t27 -71q0 -73 -60 -108q83 -25 83 -114z" />
    <glyph glyph-name="acute" unicode="&#xb4;" horiz-adv-x="369" 
d="M278 660l-97 -145h-39l81 145h55z" />
    <glyph glyph-name="mu" unicode="&#xb5;" horiz-adv-x="527" 
d="M136 7v-246h-48v357v335h48v-316q0 -43 17.5 -74t59.5 -31q41 0 82 29t96 98v294h48v-453h-48v104q-41 -55 -84 -85.5t-103 -30.5q-42 0 -68 19z" />
    <glyph glyph-name="paragraph" unicode="&#xb6;" horiz-adv-x="630" 
d="M520 -226h-48v920h-78v-920h-48v482h-64q-88 0 -154.5 70.5t-66.5 167.5q0 104 65.5 173t168.5 69h225v-962z" />
    <glyph glyph-name="periodcentered" unicode="&#xb7;" horiz-adv-x="237" 
d="M163 240q0 -18 -13 -31t-31 -13t-31 13t-13 31t13 31t31 13t31 -13t13 -31z" />
    <glyph glyph-name="cedilla" unicode="&#xb8;" horiz-adv-x="430" 
d="M317 -154q0 -38 -28 -60t-69 -22q-42 0 -89 17l18 38q41 -17 65 -17q55 0 55 41q0 27 -22.5 35t-68.5 8h-9l64 114h39l-47 -83h25q30 0 48.5 -18.5t18.5 -52.5z" />
    <glyph glyph-name="onesuperior" unicode="&#xb9;" horiz-adv-x="307" 
d="M213 324h-54v287h-79v48h133v-335z" />
    <glyph glyph-name="ordmasculine" unicode="&#xba;" horiz-adv-x="441" 
d="M221 341q-68 0 -112.5 49t-44.5 119t45 118.5t112 48.5q66 0 111 -48.5t45 -118.5t-45 -119t-111 -49zM221 628q-42 0 -71.5 -35t-29.5 -84q0 -50 29.5 -85t71.5 -35t71 35t29 85t-29 84.5t-71 34.5z" />
    <glyph glyph-name="guillemotright" unicode="&#xbb;" horiz-adv-x="546" 
d="M473 226l-194 -170v51l138 119l-138 119v52zM255 226l-194 -170v51l139 119l-139 119v52z" />
    <glyph glyph-name="onequarter" unicode="&#xbc;" horiz-adv-x="836" 
d="M248 326h-54v287h-79v48h133v-335zM719 692l-555 -736h-51l555 736h51zM663 0v-142h-51v142h-220v22l240 322h31v-297h81v-47h-81zM612 238l-140 -191h140v191z" />
    <glyph glyph-name="onehalf" unicode="&#xbd;" horiz-adv-x="836" 
d="M719 692l-555 -736h-51l555 736h51zM278 326h-54v287h-79v48h133v-335zM785 -1h-282v29l163 140q35 29 35 65q0 25 -17 41t-45 16q-7 0 -13.5 -1t-13 -4t-11 -4.5t-11.5 -7t-10 -7t-10.5 -9t-8.5 -9t-9 -10.5l-9 -8l-37 27q26 29 41 43.5t41 26t57 11.5q50 0 81 -28
t31 -75q0 -38 -18 -62.5t-55 -55.5l-86 -70h187v-48z" />
    <glyph glyph-name="threequarters" unicode="&#xbe;" horiz-adv-x="836" 
d="M739 692l-555 -736h-51l555 736h51zM663 0v-142h-51v142h-220v22l240 322h31v-297h81v-47h-81zM612 238l-140 -191h140v191zM294 352q0 -60 -36.5 -99.5t-87 -54t-113.5 -14.5v48q79 0 129.5 27.5t50.5 88.5q0 81 -96 81h-35v42q109 26 109 97q0 25 -13.5 40.5
t-36.5 15.5q-27 0 -77 -40l-32 36q61 51 119 51q42 0 69 -26t27 -71q0 -73 -60 -108q83 -25 83 -114z" />
    <glyph glyph-name="questiondown" unicode="&#xbf;" horiz-adv-x="404" 
d="M329 464q0 -20 -13 -33t-30 -13t-29.5 13t-12.5 33q0 21 13 34t29 13q17 0 30 -13t13 -34zM332 -187l-18 -49q-107 24 -170.5 100.5t-63.5 186.5q0 61 30 102t88 41h65v110h48v-156h-148q-31 -51 -31 -95q0 -90 54.5 -156.5t145.5 -83.5z" />
    <glyph glyph-name="Agrave" unicode="&#xc0;" horiz-adv-x="581" 
d="M327 735h-49l-97 105h65zM561 0h-59l-68 203h-287l-68 -203h-59l237 679h68zM417 254l-126 370l-127 -370h253z" />
    <glyph glyph-name="Aacute" unicode="&#xc1;" horiz-adv-x="581" 
d="M410 840l-98 -105h-49l81 105h66zM561 0h-59l-68 203h-287l-68 -203h-59l237 679h68zM417 254l-126 370l-127 -370h253z" />
    <glyph glyph-name="Acircumflex" unicode="&#xc2;" horiz-adv-x="581" 
d="M424 720h-52l-77 66l-74 -66h-53l103 105h47zM561 0h-59l-68 203h-287l-68 -203h-59l237 679h68zM417 254l-126 370l-127 -370h253z" />
    <glyph glyph-name="Atilde" unicode="&#xc3;" horiz-adv-x="581" 
d="M472 766q-46 -46 -108 -48q-31 -2 -80 23q-39 20 -64 20q-33 -1 -75 -32l-19 24q66 46 104 47q11 0 23 -3t18.5 -5.5t22.5 -11t19 -9.5q37 -19 60 -18q22 1 38 8t43 27zM561 0h-59l-68 203h-287l-68 -203h-59l237 679h68zM417 254l-126 370l-127 -370h253z" />
    <glyph glyph-name="Adieresis" unicode="&#xc4;" horiz-adv-x="581" 
d="M413 768q0 -16 -11.5 -28t-28.5 -12t-28.5 12t-11.5 28t11.5 27.5t28.5 11.5t28.5 -11.5t11.5 -27.5zM257 768q0 -16 -11.5 -28t-27.5 -12t-28 12t-12 28t11.5 27.5t28.5 11.5q16 0 27.5 -11.5t11.5 -27.5zM561 0h-59l-68 203h-287l-68 -203h-59l237 679h68zM417 254
l-126 370l-127 -370h253z" />
    <glyph glyph-name="Aring" unicode="&#xc5;" horiz-adv-x="581" 
d="M374 788q0 -33 -23 -56t-56 -23t-56.5 23t-23.5 56t23.5 56.5t56.5 23.5t56 -23.5t23 -56.5zM561 0h-59l-68 203h-287l-68 -203h-59l237 679h68zM340 788q0 19 -13.5 32.5t-31.5 13.5q-19 0 -32.5 -13.5t-13.5 -32.5t13.5 -32t32.5 -13q18 0 31.5 13t13.5 32zM417 254
l-126 370l-127 -370h253z" />
    <glyph glyph-name="AE" unicode="&#xc6;" horiz-adv-x="780" 
d="M723 0h-354v202h-203l-103 -202h-56l324 660h386v-48h-294v-251h243v-48h-243v-265h300v-48zM369 250v368l-180 -368h180z" />
    <glyph glyph-name="Ccedilla" unicode="&#xc7;" horiz-adv-x="591" 
d="M557 616l-27 -42q-72 48 -158 48q-112 0 -183.5 -81t-71.5 -203q0 -134 74 -217.5t197 -83.5q70 0 150 35l18 -47q-84 -38 -172 -38l-44 -70h25q31 0 50 -18.5t19 -52.5q0 -38 -28.5 -60.5t-70.5 -22.5q-38 0 -89 18l18 38q39 -16 65 -16q55 0 55 40q0 27 -22 35t-69 8
h-9l64 103q-129 12 -210 106.5t-81 237.5q0 146 91 242.5t227 96.5q102 0 182 -56z" />
    <glyph glyph-name="Egrave" unicode="&#xc8;" horiz-adv-x="525" 
d="M337 735h-49l-97 105h65zM468 0h-352v660h343v-48h-289v-251h239v-48h-239v-265h298v-48z" />
    <glyph glyph-name="Eacute" unicode="&#xc9;" horiz-adv-x="525" 
d="M410 840l-98 -105h-49l81 105h66zM468 0h-352v660h343v-48h-289v-251h239v-48h-239v-265h298v-48z" />
    <glyph glyph-name="Ecircumflex" unicode="&#xca;" horiz-adv-x="525" 
d="M424 720h-52l-77 66l-74 -66h-53l103 105h47zM468 0h-352v660h343v-48h-289v-251h239v-48h-239v-265h298v-48z" />
    <glyph glyph-name="Edieresis" unicode="&#xcb;" horiz-adv-x="525" 
d="M431 768q0 -16 -11.5 -28t-28.5 -12t-28.5 12t-11.5 28t11.5 27.5t28.5 11.5t28.5 -11.5t11.5 -27.5zM245 768q0 -16 -11.5 -28t-27.5 -12t-28 12t-12 28t11.5 27.5t28.5 11.5q16 0 27.5 -11.5t11.5 -27.5zM468 0h-352v660h343v-48h-289v-251h239v-48h-239v-265h298v-48z
" />
    <glyph glyph-name="Igrave" unicode="&#xcc;" horiz-adv-x="286" 
d="M181 735h-49l-97 105h65zM170 0h-54v660h54v-660z" />
    <glyph glyph-name="Iacute" unicode="&#xcd;" horiz-adv-x="286" 
d="M269 840l-97 -105h-49l81 105h65zM170 0h-54v660h54v-660z" />
    <glyph glyph-name="Icircumflex" unicode="&#xce;" horiz-adv-x="286" 
d="M274 720h-52l-77 66l-74 -66h-53l103 105h47zM170 0h-54v660h54v-660z" />
    <glyph glyph-name="Idieresis" unicode="&#xcf;" horiz-adv-x="286" 
d="M254 768q0 -16 -12 -28t-28 -12t-27.5 12t-11.5 28t11.5 27.5t27.5 11.5q17 0 28.5 -11.5t11.5 -27.5zM119 768q0 -16 -11.5 -28t-28.5 -12t-28.5 12t-11.5 28t11.5 27.5t28.5 11.5t28.5 -11.5t11.5 -27.5zM170 0h-54v660h54v-660z" />
    <glyph glyph-name="Eth" unicode="&#xd0;" horiz-adv-x="697" 
d="M638 343q0 -149 -86.5 -246t-230.5 -97h-205v334h-116v42h116v284h206q139 0 227.5 -87.5t88.5 -229.5zM578 344q0 119 -75 193.5t-194 74.5h-139v-236h165v-42h-165v-286h139q128 0 198.5 81t70.5 215z" />
    <glyph glyph-name="Ntilde" unicode="&#xd1;" horiz-adv-x="745" 
d="M557 766q-46 -46 -108 -48q-31 -2 -80 23q-39 20 -64 20q-33 -1 -75 -32l-19 24q66 46 104 47q11 0 23 -3t18.5 -5.5t22.5 -11t19 -9.5q37 -19 60 -18q22 1 38 8t43 27zM629 -6h-68l-391 599v-593h-54v660h80l379 -587v587h54v-666z" />
    <glyph glyph-name="Ograve" unicode="&#xd2;" horiz-adv-x="749" 
d="M408 735h-49l-97 105h65zM692 330q0 -150 -90 -246.5t-227 -96.5q-138 0 -228 96.5t-90 246.5q0 149 90 245.5t228 96.5t227.5 -96t89.5 -246zM632 330q0 119 -75.5 205.5t-181.5 86.5q-107 0 -182.5 -86.5t-75.5 -205.5q0 -120 75.5 -206.5t182.5 -86.5
q106 0 181.5 86.5t75.5 206.5z" />
    <glyph glyph-name="Oacute" unicode="&#xd3;" horiz-adv-x="749" 
d="M480 840l-98 -105h-49l81 105h66zM692 330q0 -150 -90 -246.5t-227 -96.5q-138 0 -228 96.5t-90 246.5q0 149 90 245.5t228 96.5t227.5 -96t89.5 -246zM632 330q0 119 -75.5 205.5t-181.5 86.5q-107 0 -182.5 -86.5t-75.5 -205.5q0 -120 75.5 -206.5t182.5 -86.5
q106 0 181.5 86.5t75.5 206.5z" />
    <glyph glyph-name="Ocircumflex" unicode="&#xd4;" horiz-adv-x="749" 
d="M501 720h-52l-77 66l-74 -66h-54l104 105h47zM692 330q0 -150 -90 -246.5t-227 -96.5q-138 0 -228 96.5t-90 246.5q0 149 90 245.5t228 96.5t227.5 -96t89.5 -246zM632 330q0 119 -75.5 205.5t-181.5 86.5q-107 0 -182.5 -86.5t-75.5 -205.5q0 -120 75.5 -206.5
t182.5 -86.5q106 0 181.5 86.5t75.5 206.5z" />
    <glyph glyph-name="Otilde" unicode="&#xd5;" horiz-adv-x="749" 
d="M553 766q-46 -46 -108 -48q-31 -2 -80 23q-39 20 -64 20q-33 -1 -75 -32l-19 24q66 46 104 47q11 0 23 -3t18.5 -5.5t22.5 -11t19 -9.5q37 -19 60 -18q22 1 38 8t43 27zM692 330q0 -150 -90 -246.5t-227 -96.5q-138 0 -228 96.5t-90 246.5q0 149 90 245.5t228 96.5
t227.5 -96t89.5 -246zM632 330q0 119 -75.5 205.5t-181.5 86.5q-107 0 -182.5 -86.5t-75.5 -205.5q0 -120 75.5 -206.5t182.5 -86.5q106 0 181.5 86.5t75.5 206.5z" />
    <glyph glyph-name="Odieresis" unicode="&#xd6;" horiz-adv-x="749" 
d="M543 768q0 -16 -11.5 -28t-28.5 -12t-28.5 12t-11.5 28t11.5 27.5t28.5 11.5t28.5 -11.5t11.5 -27.5zM294 768q0 -16 -11.5 -28t-27.5 -12q-17 0 -28.5 12t-11.5 28t11.5 27.5t28.5 11.5q16 0 27.5 -11.5t11.5 -27.5zM692 330q0 -150 -90 -246.5t-227 -96.5
q-138 0 -228 96.5t-90 246.5q0 149 90 245.5t228 96.5t227.5 -96t89.5 -246zM632 330q0 119 -75.5 205.5t-181.5 86.5q-107 0 -182.5 -86.5t-75.5 -205.5q0 -120 75.5 -206.5t182.5 -86.5q106 0 181.5 86.5t75.5 206.5z" />
    <glyph glyph-name="multiply" unicode="&#xd7;" 
d="M489 433l-197 -207l197 -207l-24 -24l-197 206l-197 -207l-24 25l197 207l-197 207l24 25l197 -207l197 207z" />
    <glyph glyph-name="Oslash" unicode="&#xd8;" horiz-adv-x="749" 
d="M701 676l-92 -108q83 -96 83 -238q0 -150 -90 -246.5t-227 -96.5q-114 0 -199 69l-100 -118l-37 30l103 122q-85 96 -85 240q0 149 90 245.5t228 96.5q114 0 200 -70l88 105zM536 556q-71 66 -161 66q-107 0 -182.5 -86.5t-75.5 -205.5q0 -111 65 -193zM632 330
q0 108 -63 190l-355 -419q70 -64 161 -64q106 0 181.5 86.5t75.5 206.5z" />
    <glyph glyph-name="Ugrave" unicode="&#xd9;" horiz-adv-x="686" 
d="M386 735h-49l-97 105h65zM587 226q0 -116 -65 -180.5t-178 -64.5q-114 0 -179.5 63.5t-65.5 181.5v434h54v-418q0 -99 46.5 -155t143.5 -56q190 0 190 211v418h54v-434z" />
    <glyph glyph-name="Uacute" unicode="&#xda;" horiz-adv-x="686" 
d="M460 840l-98 -105h-49l81 105h66zM587 226q0 -116 -65 -180.5t-178 -64.5q-114 0 -179.5 63.5t-65.5 181.5v434h54v-418q0 -99 46.5 -155t143.5 -56q190 0 190 211v418h54v-434z" />
    <glyph glyph-name="Ucircumflex" unicode="&#xdb;" horiz-adv-x="686" 
d="M477 720h-52l-77 66l-74 -66h-54l104 105h47zM587 226q0 -116 -65 -180.5t-178 -64.5q-114 0 -179.5 63.5t-65.5 181.5v434h54v-418q0 -99 46.5 -155t143.5 -56q190 0 190 211v418h54v-434z" />
    <glyph glyph-name="Udieresis" unicode="&#xdc;" horiz-adv-x="686" 
d="M499 768q0 -16 -11.5 -28t-28.5 -12t-28.5 12t-11.5 28t11.5 27.5t28.5 11.5t28.5 -11.5t11.5 -27.5zM287 768q0 -16 -11.5 -28t-27.5 -12t-28 12t-12 28t11.5 27.5t28.5 11.5q16 0 27.5 -11.5t11.5 -27.5zM587 226q0 -116 -65 -180.5t-178 -64.5q-114 0 -179.5 63.5
t-65.5 181.5v434h54v-418q0 -99 46.5 -155t143.5 -56q190 0 190 211v418h54v-434z" />
    <glyph glyph-name="Yacute" unicode="&#xdd;" 
d="M510 660l-221 -349v-311h-54v304l-210 356h66l175 -298l182 298h62zM383 812l-97 -105h-49l81 105h65z" />
    <glyph glyph-name="Thorn" unicode="&#xde;" horiz-adv-x="542" 
d="M507 343q0 -101 -63.5 -159.5t-167.5 -58.5q-15 0 -106 10v-135h-54v659h55v-126h128q98 0 153 -47t55 -143zM447 338q0 147 -160 147h-117v-304q67 -8 92 -8q85 0 135 40.5t50 124.5z" />
    <glyph glyph-name="germandbls" unicode="&#xdf;" horiz-adv-x="562" 
d="M536 109q0 -56 -41.5 -89t-111.5 -33q-39 0 -67 7.5t-69 32.5l20 43q61 -38 119 -38q45 0 71.5 18.5t26.5 52.5q0 13 -4 24t-13 21t-16.5 17t-22.5 15.5t-22 12t-24.5 11.5t-20.5 10q-58 28 -81.5 54t-23.5 62q0 37 20 63.5t94 83.5q40 31 54.5 53t14.5 55q0 52 -36.5 81
t-100.5 29q-139 0 -139 -182v-513h-48v402h-88v25l88 20v86q0 100 50 153t140 53q86 0 136 -40.5t50 -110.5q0 -44 -23.5 -77.5t-96.5 -87.5q-63 -46 -63 -90q0 -26 24 -46.5t86 -49.5q29 -13 45 -21.5t35.5 -24t28.5 -35.5t9 -47z" />
    <glyph glyph-name="agrave" unicode="&#xe0;" horiz-adv-x="462" 
d="M277 515h-39l-97 145h55zM410 21l-12 -33q-43 5 -58 18t-19 57q-37 -37 -71.5 -56t-81.5 -19q-49 0 -78 30t-29 82q0 47 25.5 79t70.5 43l162 40v93q0 34 -24 52t-66 18q-40 0 -69 -14.5t-29 -39.5q0 -1 0.5 -4t0.5 -4l-50 -5q-2 5 -2 14q0 46 40.5 69.5t112.5 23.5
q133 0 133 -106v-294q0 -39 44 -44zM319 105v118l-182 -49q-24 -32 -24 -76q0 -31 18 -50.5t52 -19.5q50 0 136 77z" />
    <glyph glyph-name="aacute" unicode="&#xe1;" horiz-adv-x="462" 
d="M350 660l-97 -145h-39l81 145h55zM410 21l-12 -33q-43 5 -58 18t-19 57q-37 -37 -71.5 -56t-81.5 -19q-49 0 -78 30t-29 82q0 47 25.5 79t70.5 43l162 40v93q0 34 -24 52t-66 18q-40 0 -69 -14.5t-29 -39.5q0 -1 0.5 -4t0.5 -4l-50 -5q-2 5 -2 14q0 46 40.5 69.5
t112.5 23.5q133 0 133 -106v-294q0 -39 44 -44zM319 105v118l-182 -49q-24 -32 -24 -76q0 -31 18 -50.5t52 -19.5q50 0 136 77z" />
    <glyph glyph-name="acircumflex" unicode="&#xe2;" horiz-adv-x="462" 
d="M351 515h-42l-80 112l-77 -112h-43l96 145h47zM410 21l-12 -33q-43 5 -58 18t-19 57q-37 -37 -71.5 -56t-81.5 -19q-49 0 -78 30t-29 82q0 47 25.5 79t70.5 43l162 40v93q0 34 -24 52t-66 18q-40 0 -69 -14.5t-29 -39.5q0 -1 0.5 -4t0.5 -4l-50 -5q-2 5 -2 14
q0 46 40.5 69.5t112.5 23.5q133 0 133 -106v-294q0 -39 44 -44zM319 105v118l-182 -49q-24 -32 -24 -76q0 -31 18 -50.5t52 -19.5q50 0 136 77z" />
    <glyph glyph-name="atilde" unicode="&#xe3;" horiz-adv-x="462" 
d="M408 591q-45 -46 -108 -48q-31 -2 -80 23q-39 20 -64 19q-33 -1 -75 -32l-19 25q64 45 104 47q9 0 17 -1t18 -5.5t15 -6.5t17.5 -9t15.5 -8q35 -18 60 -17q22 1 38 8t43 27zM410 21l-12 -33q-43 5 -58 18t-19 57q-37 -37 -71.5 -56t-81.5 -19q-49 0 -78 30t-29 82
q0 47 25.5 79t70.5 43l162 40v93q0 34 -24 52t-66 18q-40 0 -69 -14.5t-29 -39.5q0 -1 0.5 -4t0.5 -4l-50 -5q-2 5 -2 14q0 46 40.5 69.5t112.5 23.5q133 0 133 -106v-294q0 -39 44 -44zM319 105v118l-182 -49q-24 -32 -24 -76q0 -31 18 -50.5t52 -19.5q50 0 136 77z" />
    <glyph glyph-name="adieresis" unicode="&#xe4;" horiz-adv-x="462" 
d="M347 583q0 -17 -11.5 -28.5t-28.5 -11.5q-16 0 -27.5 12t-11.5 28t11.5 28t27.5 12q17 0 28.5 -11.5t11.5 -28.5zM192 583q0 -16 -11.5 -28t-27.5 -12q-17 0 -28.5 11.5t-11.5 28.5t11.5 28.5t28.5 11.5q16 0 27.5 -12t11.5 -28zM410 21l-12 -33q-43 5 -58 18t-19 57
q-37 -37 -71.5 -56t-81.5 -19q-49 0 -78 30t-29 82q0 47 25.5 79t70.5 43l162 40v93q0 34 -24 52t-66 18q-40 0 -69 -14.5t-29 -39.5q0 -1 0.5 -4t0.5 -4l-50 -5q-2 5 -2 14q0 46 40.5 69.5t112.5 23.5q133 0 133 -106v-294q0 -39 44 -44zM319 105v118l-182 -49
q-24 -32 -24 -76q0 -31 18 -50.5t52 -19.5q50 0 136 77z" />
    <glyph glyph-name="aring" unicode="&#xe5;" horiz-adv-x="462" 
d="M310 593q0 -33 -23 -56t-56 -23t-56.5 23t-23.5 56t23.5 56.5t56.5 23.5t56 -23.5t23 -56.5zM410 21l-12 -33q-43 5 -58 18t-19 57q-37 -37 -71.5 -56t-81.5 -19q-49 0 -78 30t-29 82q0 47 25.5 79t70.5 43l162 40v93q0 34 -24 52t-66 18q-40 0 -69 -14.5t-29 -39.5
q0 -1 0.5 -4t0.5 -4l-50 -5q-2 5 -2 14q0 46 40.5 69.5t112.5 23.5q133 0 133 -106v-294q0 -39 44 -44zM276 593q0 19 -13.5 32.5t-31.5 13.5q-19 0 -32.5 -13.5t-13.5 -32.5t13.5 -32t32.5 -13q18 0 31.5 13t13.5 32zM319 105v118l-182 -49q-24 -32 -24 -76q0 -31 18 -50.5
t52 -19.5q50 0 136 77z" />
    <glyph glyph-name="ae" unicode="&#xe6;" horiz-adv-x="725" 
d="M681 287l-310 -60q0 -97 41.5 -146.5t120.5 -49.5q60 0 122 43l18 -38q-77 -49 -156 -49q-56 0 -98 24.5t-63 62.5q-82 -86 -178 -86q-54 0 -85.5 30t-31.5 82q0 48 25.5 80t70.5 42l162 34v99q0 34 -24 52t-66 18q-40 0 -69 -14.5t-29 -39.5q0 -1 0.5 -4t0.5 -4l-50 -5
q-2 5 -2 14q0 46 40.5 69.5t112.5 23.5q114 0 130 -78q57 78 157 78q65 0 109 -44t50 -111zM626 317q0 43 -33.5 75t-77.5 32q-56 0 -94.5 -40.5t-46.5 -116.5zM343 106q-19 23 -24 109v2l-182 -43q-24 -32 -24 -76q0 -70 80 -70q40 0 80.5 23t69.5 55z" />
    <glyph glyph-name="ccedilla" unicode="&#xe7;" horiz-adv-x="430" 
d="M406 427l-27 -41q-45 35 -109 35q-75 0 -121.5 -55.5t-46.5 -140.5q0 -87 47 -140.5t127 -53.5q56 0 105 36l24 -39q-65 -41 -136 -41l-44 -70h25q30 0 48.5 -18.5t18.5 -52.5q0 -38 -28 -60t-69 -22q-42 0 -89 17l18 38q41 -17 65 -17q55 0 55 41q0 27 -22.5 35t-68.5 8
h-9l64 103q-83 12 -133 74.5t-50 157.5q0 108 62.5 176t160.5 68q80 0 133 -38z" />
    <glyph glyph-name="egrave" unicode="&#xe8;" horiz-adv-x="455" 
d="M296 515h-39l-97 145h55zM411 247h-310q-5 -99 37 -157.5t125 -58.5q60 0 122 43l18 -38q-77 -49 -156 -49q-93 0 -145.5 65.5t-52.5 183.5q0 103 55.5 166t145.5 63q71 0 116 -50.5t45 -134.5v-33zM359 287q0 62 -32 99.5t-82 37.5q-109 0 -141 -137h255z" />
    <glyph glyph-name="eacute" unicode="&#xe9;" horiz-adv-x="455" 
d="M357 660l-97 -145h-40l82 145h55zM411 247h-310q-5 -99 37 -157.5t125 -58.5q60 0 122 43l18 -38q-77 -49 -156 -49q-93 0 -145.5 65.5t-52.5 183.5q0 103 55.5 166t145.5 63q71 0 116 -50.5t45 -134.5v-33zM359 287q0 62 -32 99.5t-82 37.5q-109 0 -141 -137h255z" />
    <glyph glyph-name="ecircumflex" unicode="&#xea;" horiz-adv-x="455" 
d="M371 515h-42l-80 112l-77 -112h-43l96 145h47zM411 247h-310q-5 -99 37 -157.5t125 -58.5q60 0 122 43l18 -38q-77 -49 -156 -49q-93 0 -145.5 65.5t-52.5 183.5q0 103 55.5 166t145.5 63q71 0 116 -50.5t45 -134.5v-33zM359 287q0 62 -32 99.5t-82 37.5
q-109 0 -141 -137h255z" />
    <glyph glyph-name="edieresis" unicode="&#xeb;" horiz-adv-x="455" 
d="M367 583q0 -17 -11.5 -28.5t-28.5 -11.5q-16 0 -27.5 12t-11.5 28t11.5 28t27.5 12q17 0 28.5 -11.5t11.5 -28.5zM192 583q0 -16 -11.5 -28t-27.5 -12q-17 0 -28.5 11.5t-11.5 28.5t11.5 28.5t28.5 11.5q16 0 27.5 -12t11.5 -28zM411 247h-310q-5 -99 37 -157.5
t125 -58.5q60 0 122 43l18 -38q-77 -49 -156 -49q-93 0 -145.5 65.5t-52.5 183.5q0 103 55.5 166t145.5 63q71 0 116 -50.5t45 -134.5v-33zM359 287q0 62 -32 99.5t-82 37.5q-109 0 -141 -137h255z" />
    <glyph glyph-name="igrave" unicode="&#xec;" horiz-adv-x="233" 
d="M145 514h-39l-97 146h55zM141 0h-48v446h48v-446z" />
    <glyph glyph-name="iacute" unicode="&#xed;" horiz-adv-x="233" 
d="M231 660l-97 -146h-39l81 146h55zM141 0h-48v446h48v-446z" />
    <glyph glyph-name="icircumflex" unicode="&#xee;" horiz-adv-x="233" 
d="M238 515h-42l-80 112l-77 -112h-43l96 145h47zM141 0h-48v446h48v-446z" />
    <glyph glyph-name="idieresis" unicode="&#xef;" horiz-adv-x="233" 
d="M226 583q0 -17 -12 -28.5t-28 -11.5t-28 11.5t-12 28.5t12 28.5t28 11.5t28 -11.5t12 -28.5zM91 583q0 -17 -11.5 -28.5t-28.5 -11.5t-28.5 11.5t-11.5 28.5t11.5 28.5t28.5 11.5t28.5 -11.5t11.5 -28.5zM141 0h-48v447h48v-447z" />
    <glyph glyph-name="eth" unicode="&#xf0;" horiz-adv-x="530" 
d="M499 618l-103 -59q84 -116 79 -295q-5 -135 -64 -210t-149 -75q-81 0 -135.5 64t-50.5 163q3 81 51.5 130.5t116.5 49.5q50 0 87 -12t93 -40q-15 127 -69 201l-146 -85l-21 37l139 80q-62 59 -161 59q-24 0 -40 -1l2 42q35 3 51 3q115 0 190 -78l109 62zM425 290
q-100 52 -167 52q-59 0 -93.5 -41t-36.5 -103q-3 -73 33 -124t100 -51q49 0 84 26t51 69t22.5 85t6.5 87z" />
    <glyph glyph-name="ntilde" unicode="&#xf1;" horiz-adv-x="531" 
d="M438 591q-45 -46 -108 -48q-31 -2 -80 23q-39 20 -64 19q-33 -1 -75 -32l-19 25q64 45 104 47q9 0 17 -1t18 -5.5t15 -6.5t17.5 -9t15.5 -8q35 -18 60 -17q22 1 38 8t43 27zM443 0h-48v326q0 29 -3.5 47t-19 33t-44.5 15q-40 0 -83 -32t-105 -105v-284h-48v453h48v-116
q26 31 41.5 47.5t41.5 38.5t54 32t60 10q53 0 79.5 -28.5t26.5 -91.5v-345z" />
    <glyph glyph-name="ograve" unicode="&#xf2;" horiz-adv-x="519" 
d="M297 515h-38l-104 145h55zM469 226q0 -100 -60.5 -169.5t-148.5 -69.5q-90 0 -150 69.5t-60 169.5t60.5 169.5t149.5 69.5q88 0 148.5 -69.5t60.5 -169.5zM417 226q0 80 -45 137.5t-112 57.5t-112.5 -57.5t-45.5 -137.5t45.5 -137.5t112.5 -57.5t112 57.5t45 137.5z" />
    <glyph glyph-name="oacute" unicode="&#xf3;" horiz-adv-x="519" 
d="M370 660l-93 -145h-37l74 145h56zM469 226q0 -100 -60.5 -169.5t-148.5 -69.5q-90 0 -150 69.5t-60 169.5t60.5 169.5t149.5 69.5q88 0 148.5 -69.5t60.5 -169.5zM417 226q0 80 -45 137.5t-112 57.5t-112.5 -57.5t-45.5 -137.5t45.5 -137.5t112.5 -57.5t112 57.5
t45 137.5z" />
    <glyph glyph-name="ocircumflex" unicode="&#xf4;" horiz-adv-x="519" 
d="M386 515h-42l-80 112l-77 -112h-43l96 145h47zM469 226q0 -100 -60.5 -169.5t-148.5 -69.5q-90 0 -150 69.5t-60 169.5t60.5 169.5t149.5 69.5q88 0 148.5 -69.5t60.5 -169.5zM417 226q0 80 -45 137.5t-112 57.5t-112.5 -57.5t-45.5 -137.5t45.5 -137.5t112.5 -57.5
t112 57.5t45 137.5z" />
    <glyph glyph-name="otilde" unicode="&#xf5;" horiz-adv-x="519" 
d="M438 591q-45 -46 -108 -48q-31 -2 -80 23q-39 20 -64 19q-33 -1 -75 -32l-19 25q64 45 104 47q9 0 17 -1t18 -5.5t15 -6.5t17.5 -9t15.5 -8q35 -18 60 -17q22 1 38 8t43 27zM469 226q0 -100 -60.5 -169.5t-148.5 -69.5q-90 0 -150 69.5t-60 169.5t60.5 169.5t149.5 69.5
q88 0 148.5 -69.5t60.5 -169.5zM417 226q0 80 -45 137.5t-112 57.5t-112.5 -57.5t-45.5 -137.5t45.5 -137.5t112.5 -57.5t112 57.5t45 137.5z" />
    <glyph glyph-name="odieresis" unicode="&#xf6;" horiz-adv-x="519" 
d="M397 583q0 -17 -11.5 -28.5t-28.5 -11.5q-16 0 -27.5 12t-11.5 28t11.5 28t27.5 12q17 0 28.5 -11.5t11.5 -28.5zM202 583q0 -16 -11.5 -28t-27.5 -12q-17 0 -28.5 11.5t-11.5 28.5t11.5 28.5t28.5 11.5q16 0 27.5 -12t11.5 -28zM469 226q0 -100 -60.5 -169.5
t-148.5 -69.5q-90 0 -150 69.5t-60 169.5t60.5 169.5t149.5 69.5q88 0 148.5 -69.5t60.5 -169.5zM417 226q0 80 -45 137.5t-112 57.5t-112.5 -57.5t-45.5 -137.5t45.5 -137.5t112.5 -57.5t112 57.5t45 137.5z" />
    <glyph glyph-name="divide" unicode="&#xf7;" 
d="M314 442q0 -18 -13 -31t-31 -13t-31 13t-13 31t13 31t31 13t31 -13t13 -31zM504 215h-472v44h472v-44zM314 32q0 -18 -13 -31t-31 -13t-31 13t-13 31t13 31t31 13t31 -13t13 -31z" />
    <glyph glyph-name="oslash" unicode="&#xf8;" horiz-adv-x="519" 
d="M494 478l-77 -93q52 -66 52 -159q0 -100 -60.5 -169.5t-148.5 -69.5q-74 0 -130 50l-63 -77l-30 24l66 81q-53 67 -53 161q0 100 60.5 169.5t149.5 69.5q76 0 131 -52l73 89zM361 376q-43 45 -101 45q-67 0 -112.5 -57.5t-45.5 -137.5q0 -69 34 -122zM417 226
q0 67 -33 119l-224 -271q43 -43 100 -43q67 0 112 57.5t45 137.5z" />
    <glyph glyph-name="ugrave" unicode="&#xf9;" horiz-adv-x="527" 
d="M298 515h-39l-97 145h55zM439 0h-48v104q-41 -55 -84 -85.5t-103 -30.5q-54 0 -85 33.5t-31 96.5v335h48v-316q0 -43 17.5 -74t59.5 -31q41 0 82 29t96 98v294h48v-453z" />
    <glyph glyph-name="uacute" unicode="&#xfa;" horiz-adv-x="527" 
d="M378 660l-98 -145h-39l82 145h55zM439 0h-48v104q-41 -55 -84 -85.5t-103 -30.5q-54 0 -85 33.5t-31 96.5v335h48v-316q0 -43 17.5 -74t59.5 -31q41 0 82 29t96 98v294h48v-453z" />
    <glyph glyph-name="ucircumflex" unicode="&#xfb;" horiz-adv-x="527" 
d="M391 515h-42l-80 112l-77 -112h-43l96 145h47zM439 0h-48v104q-41 -55 -84 -85.5t-103 -30.5q-54 0 -85 33.5t-31 96.5v335h48v-316q0 -43 17.5 -74t59.5 -31q41 0 82 29t96 98v294h48v-453z" />
    <glyph glyph-name="udieresis" unicode="&#xfc;" horiz-adv-x="527" 
d="M407 583q0 -17 -11.5 -28.5t-28.5 -11.5q-16 0 -27.5 12t-11.5 28t11.5 28t27.5 12q17 0 28.5 -11.5t11.5 -28.5zM212 583q0 -16 -11.5 -28t-27.5 -12q-17 0 -28.5 11.5t-11.5 28.5t11.5 28.5t28.5 11.5q16 0 27.5 -12t11.5 -28zM439 0h-48v104q-41 -55 -84 -85.5
t-103 -30.5q-54 0 -85 33.5t-31 96.5v335h48v-316q0 -43 17.5 -74t59.5 -31q41 0 82 29t96 98v294h48v-453z" />
    <glyph glyph-name="yacute" unicode="&#xfd;" horiz-adv-x="391" 
d="M370 453l-172 -478q-27 -74 -63 -136q-24 -41 -58 -86l-36 30q43 50 78 114q23 43 63 152l-161 404h54l129 -338l114 338h52zM307 660l-97 -145h-39l81 145h55z" />
    <glyph glyph-name="thorn" unicode="&#xfe;" horiz-adv-x="529" 
d="M479 244q0 -110 -62 -183t-155 -73q-81 0 -122 46v-273h-48v968h48v-351q41 52 76 70t87 18q77 0 126.5 -61t49.5 -161zM427 243q0 74 -38 125.5t-98 51.5q-80 0 -151 -94v-197q0 -43 35.5 -69t78.5 -26q78 0 125.5 59.5t47.5 149.5z" />
    <glyph glyph-name="ydieresis" unicode="&#xff;" horiz-adv-x="391" 
d="M347 583q0 -17 -11.5 -28.5t-28.5 -11.5q-16 0 -27.5 12t-11.5 28t11.5 28t27.5 12q17 0 28.5 -11.5t11.5 -28.5zM152 583q0 -16 -11.5 -28t-27.5 -12q-17 0 -28.5 11.5t-11.5 28.5t11.5 28.5t28.5 11.5q16 0 27.5 -12t11.5 -28zM370 453l-172 -478q-27 -74 -63 -136
q-24 -41 -58 -86l-36 30q43 50 78 114q23 43 63 152l-161 404h54l129 -338l114 338h52z" />
    <glyph glyph-name="dotlessi" unicode="&#x131;" horiz-adv-x="233" 
d="M141 0h-48v453h48v-453z" />
    <glyph glyph-name="Lslash" unicode="&#x141;" horiz-adv-x="481" 
d="M465 0h-349v306l-93 -54l-21 37l114 66v305h54v-274l122 70l21 -36l-143 -83v-289h295v-48z" />
    <glyph glyph-name="lslash" unicode="&#x142;" horiz-adv-x="225" 
d="M275 420l-138 -80v-340h-48v313l-104 -61l-21 37l125 72v368h48v-340l117 67z" />
    <glyph glyph-name="OE" unicode="&#x152;" horiz-adv-x="904" 
d="M847 0h-371q-56 -13 -115 -13q-126 0 -215 98.5t-89 244.5q0 145 89 244t215 99q38 0 114 -13h359v-49h-289v-250h239v-48h-239v-264h302v-49zM491 60v542q-73 21 -112 21q-110 0 -186 -86.5t-76 -206.5t76 -206.5t187 -86.5q58 0 111 23z" />
    <glyph glyph-name="oe" unicode="&#x153;" horiz-adv-x="821" 
d="M778 247h-312q1 -10 1 -31q11 -185 163 -185q60 0 122 43l18 -38q-77 -49 -156 -49q-126 0 -175 115q-28 -53 -75 -84t-104 -31q-90 0 -150 69.5t-60 169.5t60.5 169.5t149.5 69.5q57 0 104.5 -30.5t74.5 -83.5q24 54 71 84t107 30q71 0 116 -50.5t45 -134.5v-33z
M726 287q0 62 -32 99.5t-82 37.5q-111 0 -143 -137h257zM419 222q0 79 -44 139t-115 60q-67 0 -112.5 -57.5t-45.5 -137.5t45.5 -137.5t112.5 -57.5q65 0 112 56.5t47 134.5z" />
    <glyph glyph-name="Scaron" unicode="&#x160;" horiz-adv-x="520" 
d="M455 622l-25 -47q-77 46 -155 46q-61 0 -99 -30.5t-38 -80.5q0 -44 32 -75.5t132 -86.5q37 -20 57.5 -33.5t45.5 -36t36.5 -50.5t11.5 -63q0 -82 -54.5 -130t-148.5 -48q-96 0 -189 64l28 45q46 -32 82 -45.5t85 -13.5q63 0 100 32.5t37 87.5q0 24 -9 45t-20.5 35.5
t-34 30.5t-37 24.5t-41.5 23t-37 19.5q-136 76 -136 174q0 75 55 118.5t149 43.5q92 0 173 -49zM149 800h52l77 -66l74 66h54l-104 -105h-47z" />
    <glyph glyph-name="scaron" unicode="&#x161;" horiz-adv-x="433" 
d="M367 111q0 -59 -46.5 -91.5t-118.5 -32.5q-77 0 -147 37l19 44q73 -41 127 -41q45 0 79.5 21t34.5 57q0 19 -6.5 34t-23.5 28t-28 19.5t-39.5 20t-39.5 18.5q-64 33 -87 59t-23 69q0 54 45 83t123 29q61 0 127 -33l-23 -42q-56 35 -112 35q-45 0 -76.5 -18t-31.5 -53
q0 -17 6.5 -30t22 -24.5t28 -18.5t37.5 -18.5t37 -17.5q71 -37 93.5 -61t22.5 -73zM351 660l-97 -145h-46l-99 145h41l81 -113l77 113h43z" />
    <glyph glyph-name="Ydieresis" unicode="&#x178;" 
d="M413 768q0 -16 -11.5 -28t-28.5 -12t-28.5 12t-11.5 28t11.5 27.5t28.5 11.5t28.5 -11.5t11.5 -27.5zM217 768q0 -16 -11.5 -28t-27.5 -12t-28 12t-12 28t11.5 27.5t28.5 11.5q16 0 27.5 -11.5t11.5 -27.5zM510 660l-221 -349v-311h-54v304l-210 356h66l175 -298l182 298
h62z" />
    <glyph glyph-name="Zcaron" unicode="&#x17d;" horiz-adv-x="581" 
d="M533 0h-484v23l389 589h-389v48h466v-29l-389 -583h407v-48zM151 800h52l77 -66l74 66h54l-104 -105h-47z" />
    <glyph glyph-name="zcaron" unicode="&#x17e;" horiz-adv-x="446" 
d="M401 0h-362v23l285 386h-272v44h349v-16l-289 -393h289v-44zM337 660l-97 -145h-47l-99 145h42l80 -113l77 113h44z" />
    <glyph glyph-name="florin" unicode="&#x192;" horiz-adv-x="302" 
d="M438 665l-34 -23q-30 44 -77 44q-16 0 -29.5 -3t-24 -7t-20.5 -13t-16.5 -15t-13.5 -19.5t-10.5 -20.5t-9 -24t-7.5 -24t-7 -25.5t-7 -24.5l-15 -56h102l-8 -33h-102l-119 -459q-12 -45 -25 -77.5t-35.5 -64t-56.5 -48t-80 -16.5q-80 0 -110 65l35 23q27 -44 77 -44
q29 0 52.5 11.5t37.5 26.5t26.5 42t18.5 45.5t14 49.5l118 446h-85l9 33h83l17 70q12 45 25 77t35 64t55.5 48.5t78.5 16.5q43 0 64 -12.5t44 -52.5z" />
    <glyph glyph-name="circumflex" unicode="&#x2c6;" horiz-adv-x="462" 
d="M351 515h-42l-80 112l-77 -112h-43l96 145h47z" />
    <glyph glyph-name="caron" unicode="&#x2c7;" horiz-adv-x="452" 
d="M351 660l-97 -145h-46l-99 145h41l81 -113l77 113h43z" />
    <glyph glyph-name="breve" unicode="&#x2d8;" horiz-adv-x="398" 
d="M342 666q0 -56 -40 -104t-103 -48t-103 49t-40 103h35q28 -110 108 -110t108 110h35z" />
    <glyph glyph-name="dotaccent" unicode="&#x2d9;" horiz-adv-x="337" 
d="M205 573q0 -18 -13 -31t-31 -13t-31 13t-13 31t13 31t31 13t31 -13t13 -31z" />
    <glyph glyph-name="ring" unicode="&#x2da;" horiz-adv-x="462" 
d="M310 593q0 -33 -23 -56t-56 -23t-56.5 23t-23.5 56t23.5 56.5t56.5 23.5t56 -23.5t23 -56.5zM276 593q0 19 -13.5 32.5t-31.5 13.5q-19 0 -32.5 -13.5t-13.5 -32.5t13.5 -32t32.5 -13q18 0 31.5 13t13.5 32z" />
    <glyph glyph-name="ogonek" unicode="&#x2db;" horiz-adv-x="238" 
d="M155 1q-11 -29 -21 -62q-3 -10 -7.5 -32.5t-5.5 -28.5l31 -97q-18 -11 -42 -11q-43 0 -43 55q0 65 63 176h25z" />
    <glyph glyph-name="tilde" unicode="&#x2dc;" horiz-adv-x="462" 
d="M408 591q-45 -46 -108 -48q-31 -2 -80 23q-39 20 -64 19q-33 -1 -75 -32l-19 25q64 45 104 47q9 0 17 -1t18 -5.5t15 -6.5t17.5 -9t15.5 -8q35 -18 60 -17q22 1 38 8t43 27z" />
    <glyph glyph-name="hungarumlaut" unicode="&#x2dd;" horiz-adv-x="369" 
d="M330 660l-97 -145h-39l81 145h55zM198 660l-97 -145h-39l81 145h55z" />
    <glyph glyph-name="endash" unicode="&#x2013;" 
d="M504 211h-472v44h472v-44z" />
    <glyph glyph-name="emdash" unicode="&#x2014;" horiz-adv-x="986" 
d="M986 211h-983v44h983v-44z" />
    <glyph glyph-name="quoteleft" unicode="&#x2018;" horiz-adv-x="238" 
d="M175 647q-11 -29 -21 -62q-6 -19 -13 -61l31 -97q-18 -11 -42 -11q-43 0 -43 55q0 65 63 176h25z" />
    <glyph glyph-name="quoteright" unicode="&#x2019;" horiz-adv-x="238" 
d="M159 592q0 -65 -63 -176h-25q8 20 22 62q5 21 12 61l-31 97q18 11 42 11q43 0 43 -55z" />
    <glyph glyph-name="quotesinglbase" unicode="&#x201a;" horiz-adv-x="238" 
d="M160 31q0 -65 -63 -176h-25q15 38 22 62q5 21 12 61l-31 97q18 11 42 11q43 0 43 -55z" />
    <glyph glyph-name="quotedblleft" unicode="&#x201c;" horiz-adv-x="423" 
d="M344 647q-12 -26 -22 -62q-3 -10 -7.5 -32.5t-5.5 -28.5l32 -97q-18 -11 -42 -11q-43 0 -43 55q0 65 63 176h25zM192 647q-12 -29 -21 -62q-6 -19 -13 -61l31 -97q-18 -11 -42 -11q-43 0 -43 55q0 65 63 176h25z" />
    <glyph glyph-name="quotedblright" unicode="&#x201d;" horiz-adv-x="423" 
d="M331 592q0 -65 -63 -176h-25q11 29 21 62q3 10 7.5 32.5t5.5 28.5l-31 97q17 11 42 11q43 0 43 -55zM179 592q0 -65 -63 -176h-25q8 20 22 62q5 21 12 61l-31 97q18 11 42 11q43 0 43 -55z" />
    <glyph glyph-name="quotedblbase" unicode="&#x201e;" horiz-adv-x="423" 
d="M331 45q0 -65 -63 -176h-25q11 29 21 62q3 10 7.5 32.5t5.5 28.5l-31 97q17 11 42 11q43 0 43 -55zM179 45q0 -65 -63 -176h-25q12 26 22 62q3 11 12 61l-31 97q18 11 42 11q43 0 43 -55z" />
    <glyph glyph-name="dagger" unicode="&#x2020;" horiz-adv-x="559" 
d="M308 660l-9 -154h-39l-10 154h58zM493 406l-146 12v44l146 10v-66zM212 418l-146 -12v66l146 -10v-44zM304 207v-455h-49v455l6 166h37z" />
    <glyph glyph-name="daggerdbl" unicode="&#x2021;" horiz-adv-x="559" 
d="M308 660l-9 -154h-39l-10 154h58zM493 406l-146 12v44l146 10v-66zM212 418l-146 -12v66l146 -10v-44zM304 206l-6 -168h-37l-6 168l6 167h37zM493 -60l-146 10v44l146 12v-66zM212 -50l-146 -10v66l146 -12v-44zM308 -248h-58l10 154h39z" />
    <glyph glyph-name="bullet" unicode="&#x2022;" horiz-adv-x="338" 
d="M255 231q0 -31 -22.5 -53.5t-53.5 -22.5t-53.5 22.5t-22.5 53.5t22.5 53.5t53.5 22.5t53.5 -22.5t22.5 -53.5z" />
    <glyph glyph-name="ellipsis" unicode="&#x2026;" horiz-adv-x="736" 
d="M674 32q0 -18 -13 -31t-31 -13t-31 13t-13 31t13 31t31 13t31 -13t13 -31zM421 32q0 -18 -13 -31t-31 -13t-31 13t-13 31t13 31t31 13t31 -13t13 -31zM163 32q0 -18 -13 -31t-31 -13t-31 13t-13 31t13 31t31 13t31 -13t13 -31z" />
    <glyph glyph-name="perthousand" unicode="&#x2030;" horiz-adv-x="1220" 
d="M1179 157q0 -70 -48 -119.5t-113 -49.5t-113 49.5t-48 119.5q0 71 47.5 120t113.5 49q65 0 113 -49t48 -120zM795 157q0 -70 -48 -119.5t-113 -49.5t-113 49.5t-48 119.5q0 71 47.5 120t113.5 49q65 0 113 -49t48 -120zM719 692l-555 -736h-51l555 736h51zM363 500
q0 -71 -47.5 -120t-113.5 -49q-65 0 -113 49t-48 120q0 72 48 121t113 49q66 0 113.5 -49t47.5 -121zM1137 157q0 54 -32.5 92t-86.5 38t-87 -38t-33 -92t33 -91.5t87 -37.5q53 0 86 37.5t33 91.5zM753 157q0 54 -32.5 92t-86.5 38t-87 -38t-33 -92t33 -91.5t87 -37.5
q53 0 86 37.5t33 91.5zM322 500q0 54 -33 92.5t-87 38.5t-86.5 -38.5t-32.5 -92.5t32.5 -92t86.5 -38t87 38t33 92z" />
    <glyph glyph-name="guilsinglleft" unicode="&#x2039;" horiz-adv-x="307" 
d="M245 56l-193 170l193 171v-52l-138 -119l138 -119v-51z" />
    <glyph glyph-name="guilsinglright" unicode="&#x203a;" horiz-adv-x="307" 
d="M255 226l-194 -170v51l139 119l-139 119v52z" />
    <glyph glyph-name="fraction" unicode="&#x2044;" horiz-adv-x="539" 
d="M572 692l-554 -736h-51l554 736h51z" />
    <glyph glyph-name="Euro" unicode="&#x20ac;" horiz-adv-x="500" 
d="M446 467l-27 -41q-45 35 -109 35q-52 0 -92.5 -34t-59.5 -89h239v-41h-250q-7 -37 -4 -78h254v-41h-247q16 -65 60 -106t106 -41q56 0 105 36l24 -39q-65 -41 -137 -41q-80 0 -137 53t-75 138h-77v34l72 7q-3 41 4 78h-76v34l86 7q24 75 79.5 121t128.5 46q80 0 133 -38z
" />
    <glyph glyph-name="trademark" unicode="&#x2122;" horiz-adv-x="849" 
d="M773 339h-41v291l-127 -291h-49l-123 285v-285h-38v321h65l126 -278l119 278h68v-321zM295 624h-101v-285h-41v285h-100v36h242v-36z" />
    <glyph glyph-name="minus" unicode="&#x2212;" 
d="M504 213h-472v44h472v-44z" />
    <glyph glyph-name="fi" unicode="&#xfb01;" horiz-adv-x="496" 
d="M429 691l-21 -43q-61 47 -125 47q-128 0 -128 -182v-61h248v-452h-48v414h-200v-414h-48v414h-76v22l76 19v78q0 95 50 150.5t131 55.5q78 0 141 -48z" />
    <glyph glyph-name="fl" unicode="&#xfb02;" horiz-adv-x="498" 
d="M410 0h-48v679q-47 16 -88 16q-57 0 -88 -48.5t-31 -133.5v-61h125v-38h-125v-414h-48v414h-76v22l76 19v78q0 95 48.5 150.5t123.5 55.5q31 0 67 -10h64v-729z" />
    </font>
</defs>
</svg>
